<?xml version="1.0" standalone="no"?>
<!DOCTYPE svg PUBLIC "-//W3C//DTD SVG 1.1//EN" "http://www.w3.org/Graphics/SVG/1.1/DTD/svg11.dtd" >
<svg xmlns="http://www.w3.org/2000/svg">
<metadata>Generated by IcoMoon</metadata>
<defs>
<font id="icomoon" horiz-adv-x="1024">
<font-face units-per-em="1024" ascent="960" descent="-64" />
<missing-glyph horiz-adv-x="1024" />
<glyph unicode="&#x20;" horiz-adv-x="512" d="" />
<glyph unicode="&#xe900;" glyph-name="account" d="M392.192 576c0 65.536 54.272 119.808 119.808 119.808s119.808-54.272 119.808-119.808c0-65.536-54.272-119.808-119.808-119.808s-119.808 54.272-119.808 119.808zM512 627.2c-28.672 0-51.2-22.528-51.2-51.2s22.528-51.2 51.2-51.2c28.672 0 51.2 22.528 51.2 51.2s-22.528 51.2-51.2 51.2zM512 439.808c-51.2 0-99.328-10.24-136.192-28.672-33.792-17.408-68.608-48.128-68.608-91.136v-3.072c0-21.504 0-59.392 35.84-84.992 16.384-12.288 37.888-19.456 64.512-24.576 26.624-4.096 60.416-7.168 104.448-7.168s77.824 3.072 104.448 7.168c26.624 5.12 48.128 12.288 64.512 24.576 35.84 25.6 35.84 63.488 35.84 84.992v3.072c0 43.008-33.792 73.728-68.608 91.136-36.864 18.432-84.992 28.672-136.192 28.672zM375.808 320c0 4.096 3.072 16.384 30.72 29.696 25.6 12.288 62.464 21.504 105.472 21.504s79.872-9.216 105.472-21.504c27.648-13.312 30.72-25.6 30.72-29.696 0-25.6-1.024-28.672-7.168-32.768-4.096-3.072-15.36-8.192-36.864-12.288-20.48-4.096-50.176-6.144-92.16-6.144s-71.68 2.048-92.16 6.144c-21.504 4.096-32.768 9.216-36.864 12.288-6.144 4.096-7.168 7.168-7.168 32.768zM699.392 903.68c-36.864 5.12-83.968 5.12-142.336 5.12h-90.112c-58.368 0-105.472 0-142.336-5.12-38.912-5.12-71.68-16.384-98.304-41.984-16.384-17.408-27.648-36.864-33.792-59.392-8.192 0-15.36-1.024-22.528-2.048-60.416-9.216-107.52-56.32-116.736-116.736-2.048-11.264-2.048-23.552-2.048-40.96v-389.12c0-17.408 0-29.696 2.048-40.96 9.216-60.416 56.32-107.52 116.736-116.736 7.168-1.024 14.336-2.048 22.528-2.048 6.144-22.528 17.408-41.984 33.792-59.392 26.624-25.6 59.392-36.864 98.304-41.984 36.864-5.12 83.968-5.12 142.336-5.12h90.112c58.368 0 105.472 0 142.336 5.12 38.912 5.12 71.68 16.384 98.304 41.984 16.384 17.408 27.648 36.864 33.792 59.392 9.216 0 16.384 1.024 22.528 2.048 60.416 9.216 107.52 56.32 116.736 116.736 2.048 11.264 2.048 23.552 2.048 40.96v389.12c0 17.408 0 29.696-2.048 40.96-9.216 60.416-56.32 107.52-116.736 116.736-6.144 1.024-13.312 2.048-22.528 2.048-6.144 22.528-17.408 41.984-33.792 59.392-26.624 25.6-59.392 36.864-98.304 41.984zM180.224 732.672h1.024c-2.048-30.72-2.048-68.608-2.048-111.616v-346.112c0-43.008 0-80.896 2.048-111.616h-1.024c-30.72 5.12-55.296 28.672-59.392 60.416-1.024 4.096-1.024 11.264-1.024 32.768v384c0 20.48 0 27.648 1.024 31.744 4.096 31.744 28.672 56.32 59.392 60.416zM842.752 732.672h1.024c30.72-4.096 55.296-28.672 60.416-60.416 0-4.096 0-11.264 0-31.744v-384c0-21.504 0-28.672 0-32.768-5.12-31.744-29.696-55.296-60.416-60.416h-1.024c2.048 30.72 2.048 68.608 2.048 111.616v346.112c0 43.008 0 80.896-2.048 111.616zM275.456 813.568c11.264 11.264 26.624 18.432 58.368 22.528s74.752 4.096 135.168 4.096h86.016c61.44 0 103.424 0 135.168-4.096s47.104-11.264 59.392-22.528c11.264-12.288 18.432-27.648 22.528-59.392s4.096-73.728 4.096-135.168v-342.016c0-60.416 0-103.424-4.096-135.168s-11.264-47.104-22.528-59.392c-12.288-11.264-27.648-18.432-59.392-22.528s-73.728-4.096-135.168-4.096h-86.016c-60.416 0-103.424 0-135.168 4.096s-47.104 11.264-58.368 22.528c-12.288 12.288-19.456 27.648-23.552 59.392s-4.096 74.752-4.096 135.168v342.016c0 61.44 0 103.424 4.096 135.168s11.264 47.104 23.552 59.392z" />
<glyph unicode="&#xe901;" glyph-name="appstore" d="M169.984 794.112c41.984 45.056 102.4 69.632 173.056 69.632h359.424c70.656 0 131.072-24.576 173.056-69.632s63.488-107.52 63.488-176.128v-339.968c0-68.608-21.504-131.072-63.488-176.128s-102.4-69.632-173.056-69.632h-359.424c-70.656 0-131.072 24.576-173.056 69.632s-63.488 107.52-63.488 176.128v339.968c0 68.608 22.528 131.072 63.488 176.128zM217.088 750.080c-28.672-30.72-46.080-76.8-46.080-132.096v-339.968c0-55.296 17.408-101.376 46.080-132.096s70.656-50.176 125.952-50.176h359.424c55.296 0 97.28 19.456 125.952 50.176s46.080 76.8 46.080 132.096v339.968c0 56.32-17.408 101.376-46.080 132.096s-70.656 50.176-125.952 50.176h-359.424c-55.296 0-97.28-19.456-125.952-50.176zM580.608 673.28c15.36-9.216 20.48-28.672 11.264-44.032l-163.84-286.72c-9.216-15.36-28.672-20.48-44.032-11.264-15.36 8.192-20.48 27.648-11.264 43.008l163.84 286.72c9.216 15.36 28.672 20.48 44.032 12.288zM367.616 301.568c15.36-8.192 20.48-27.648 11.264-43.008l-13.312-23.552c-8.192-15.36-27.648-20.48-43.008-12.288-15.36 9.216-20.48 28.672-12.288 44.032l13.312 23.552c9.216 15.36 28.672 20.48 44.032 11.264zM282.624 358.912c0 17.408 14.336 31.744 32.768 31.744h233.472c17.408 0 31.744-14.336 31.744-31.744 0-18.432-14.336-32.768-31.744-32.768h-233.472c-18.432 0-32.768 14.336-32.768 32.768zM613.376 358.912c0 17.408 14.336 31.744 31.744 31.744h84.992c17.408 0 31.744-14.336 31.744-31.744 0-18.432-14.336-32.768-31.744-32.768h-84.992c-17.408 0-31.744 14.336-31.744 32.768zM464.896 673.28c15.36 8.192 34.816 3.072 44.032-12.288l41.984-72.704c8.192-15.36 3.072-34.816-12.288-44.032-15.36-8.192-34.816-3.072-44.032 12.288l-40.96 72.704c-9.216 15.36-4.096 34.816 11.264 44.032zM555.008 515.584c15.36 9.216 34.816 3.072 44.032-12.288l136.192-236.544c8.192-15.36 3.072-34.816-12.288-44.032-15.36-8.192-34.816-3.072-43.008 12.288l-136.192 236.544c-9.216 15.36-4.096 34.816 11.264 44.032z" />
<glyph unicode="&#xe902;" glyph-name="appstore-filled" d="M719.872 304.64h-29.696l33.792-59.392c9.216-15.36 4.096-34.816-11.264-44.032-5.12-3.072-10.24-4.096-16.384-4.096-11.264 0-21.504 6.144-27.648 16.384l-136.192 236.544c-8.192 15.36-3.072 34.816 12.288 44.032 15.36 8.192 34.816 3.072 44.032-12.288l64.512-112.64h66.56c17.408 0 31.744-14.336 31.744-32.768 0-17.408-14.336-31.744-31.744-31.744zM537.6 304.64h-233.472c-17.408 0-31.744 14.336-31.744 31.744 0 18.432 14.336 32.768 31.744 32.768h66.56l104.448 181.248-32.768 57.344c-8.192 15.36-3.072 34.816 12.288 43.008 15.36 9.216 34.816 4.096 43.008-11.264l14.336-24.576 14.336 24.576c8.192 15.36 28.672 20.48 43.008 11.264 15.36-8.192 21.504-27.648 12.288-43.008l-137.216-238.592h93.184c17.408 0 31.744-14.336 31.744-32.768 0-17.408-14.336-31.744-31.744-31.744zM368.64 236.032l-13.312-22.528c-6.144-10.24-16.384-16.384-27.648-16.384-5.12 0-11.264 1.024-16.384 4.096-15.36 9.216-20.48 28.672-11.264 44.032l13.312 23.552c8.192 14.336 28.672 20.48 44.032 11.264 14.336-9.216 20.48-28.672 11.264-44.032zM692.224 832h-360.448c-134.144 0-225.28-95.232-225.28-236.544v-338.944c0-140.288 91.136-235.52 225.28-235.52h360.448c134.144 0 225.28 95.232 225.28 235.52v338.944c0 141.312-91.136 236.544-225.28 236.544z" />
<glyph unicode="&#xe903;" glyph-name="arobase" d="M522.24 32.256c-109.568 0-216.064 43.008-293.888 121.856-77.824 77.824-121.856 183.296-121.856 293.888s44.032 216.064 121.856 293.888c77.824 77.824 184.32 121.856 293.888 121.856 55.296 1.024 109.568-9.216 160.768-29.696 50.176-21.504 96.256-52.224 135.168-90.112 38.912-38.912 69.632-84.992 90.112-136.192 20.48-50.176 30.72-104.448 30.72-159.744 0-112.64-58.368-185.344-147.456-185.344-38.912 0-76.8 15.36-104.448 43.008s-43.008 64.512-43.008 104.448v181.248c0 8.192 4.096 16.384 9.216 22.528 6.144 6.144 14.336 9.216 22.528 9.216 9.216 0 17.408-3.072 23.552-9.216 5.12-6.144 9.216-14.336 9.216-22.528v-181.248c0-22.528 8.192-44.032 24.576-59.392 15.36-15.36 35.84-24.576 58.368-24.576 76.8 0 82.944 93.184 82.944 121.856 1.024 46.080-8.192 92.16-25.6 135.168s-43.008 81.92-75.776 114.688c-32.768 32.768-72.704 59.392-114.688 76.8-43.008 17.408-89.088 25.6-136.192 25.6-54.272 0-108.544-13.312-157.696-37.888-50.176-24.576-92.16-61.44-124.928-105.472s-54.272-95.232-63.488-149.504c-9.216-55.296-6.144-110.592 10.24-162.816 16.384-53.248 45.056-101.376 82.944-141.312 37.888-38.912 84.992-69.632 137.216-87.040 52.224-18.432 107.52-24.576 161.792-17.408 55.296 7.168 107.52 27.648 152.576 58.368 7.168 5.12 16.384 7.168 24.576 5.12 8.192-1.024 15.36-6.144 20.48-13.312 4.096-7.168 6.144-15.36 5.12-23.552-2.048-9.216-7.168-16.384-13.312-21.504-69.632-47.104-151.552-71.68-235.52-71.68v0zM522.24 262.656c-35.84 0-71.68 11.264-102.4 30.72-30.72 20.48-54.272 50.176-68.608 83.968s-17.408 70.656-10.24 106.496c7.168 36.864 24.576 69.632 50.176 95.232 26.624 26.624 59.392 44.032 95.232 51.2s73.728 3.072 107.52-10.24c33.792-14.336 62.464-37.888 82.944-68.608s31.744-66.56 31.744-103.424c0-49.152-19.456-96.256-54.272-131.072s-82.944-54.272-132.096-54.272v0zM522.24 569.856c-23.552 0-47.104-7.168-67.584-20.48-19.456-13.312-34.816-32.768-44.032-54.272-9.216-22.528-12.288-47.104-7.168-70.656s16.384-45.056 32.768-62.464c17.408-16.384 38.912-28.672 62.464-32.768 23.552-5.12 48.128-3.072 70.656 6.144s40.96 25.6 54.272 45.056c13.312 20.48 20.48 44.032 20.48 67.584 0 32.768-12.288 63.488-35.84 86.016-22.528 22.528-53.248 35.84-86.016 35.84v0z" />
<glyph unicode="&#xe904;" glyph-name="arrow-arc-in-right" d="M478.208 788.992c0 19.456 15.36 34.816 33.792 34.816 207.872 0 375.808-167.936 375.808-375.808 0-206.848-167.936-375.808-375.808-375.808-18.432 0-33.792 15.36-33.792 34.816 0 18.432 15.36 33.792 33.792 33.792 169.984 0 307.2 137.216 307.2 307.2s-137.216 307.2-307.2 307.2c-18.432 0-33.792 15.36-33.792 33.792zM445.44 600.576c-13.312-13.312-13.312-35.84 0-49.152l69.632-69.632h-344.064c-19.456 0-34.816-15.36-34.816-33.792s15.36-33.792 34.816-33.792h344.064l-69.632-69.632c-13.312-13.312-13.312-34.816 0-49.152 13.312-13.312 34.816-13.312 48.128 0l128 128c13.312 14.336 13.312 35.84 0 49.152l-128 128c-13.312 13.312-34.816 13.312-48.128 0z" />
<glyph unicode="&#xe905;" glyph-name="arrow-arc-out-down" d="M852.992 499.2c-27.648 0-51.2-22.528-51.2-51.2 0-159.744-130.048-289.792-289.792-289.792s-289.792 130.048-289.792 289.792c0 28.672-23.552 51.2-51.2 51.2s-51.2-22.528-51.2-51.2c0-216.064 176.128-392.192 392.192-392.192s392.192 176.128 392.192 392.192c0 28.672-22.528 51.2-51.2 51.2zM476.16 326.144c0 0 0 0 0 0s0 0 0 0 0 0 0 0 0 0 0 0 0 0 0 0c5.12-5.12 10.24-8.192 16.384-10.24 6.144-3.072 12.288-4.096 19.456-4.096s14.336 1.024 20.48 4.096c5.12 2.048 10.24 5.12 15.36 10.24 0 0 0 0 0 0s0 0 0 0 0 0 0 0 0 0 0 0 0 0 0 0l128 128c20.48 20.48 20.48 53.248 0 72.704-19.456 20.48-52.224 20.48-71.68 0l-40.96-40.96v303.104c0 28.672-22.528 51.2-51.2 51.2s-51.2-22.528-51.2-51.2v-303.104l-40.96 40.96c-19.456 20.48-52.224 20.48-71.68 0-20.48-19.456-20.48-52.224 0-72.704l128-128z" />
<glyph unicode="&#xe906;" glyph-name="arrow-arc-out-right" d="M545.792 788.992c0 19.456-15.36 34.816-33.792 34.816-206.848 0-375.808-167.936-375.808-375.808 0-206.848 168.96-375.808 375.808-375.808 18.432 0 33.792 15.36 33.792 34.816 0 18.432-15.36 33.792-33.792 33.792-169.984 0-307.2 137.216-307.2 307.2s137.216 307.2 307.2 307.2c18.432 0 33.792 15.36 33.792 33.792zM701.44 600.576c-13.312-13.312-13.312-35.84 0-49.152l69.632-69.632h-344.064c-19.456 0-34.816-15.36-34.816-33.792s15.36-33.792 34.816-33.792h344.064l-69.632-69.632c-13.312-13.312-13.312-34.816 0-49.152 13.312-13.312 34.816-13.312 48.128 0l128 128c13.312 14.336 13.312 35.84 0 49.152l-128 128c-13.312 13.312-34.816 13.312-48.128 0z" />
<glyph unicode="&#xe907;" glyph-name="arrow-arc-out-up" d="M664.576 637.44c-13.312-13.312-35.84-13.312-49.152 0l-69.632 69.632v-344.064c0-19.456-15.36-34.816-33.792-34.816s-33.792 15.36-33.792 34.816v344.064l-69.632-69.632c-13.312-13.312-35.84-13.312-49.152 0s-13.312 34.816 0 48.128l128 128c13.312 13.312 35.84 13.312 49.152 0l128-128c13.312-13.312 13.312-34.816 0-48.128zM852.992 481.792c19.456 0 34.816-15.36 34.816-33.792 0-206.848-167.936-375.808-375.808-375.808-206.848 0-375.808 168.96-375.808 375.808 0 18.432 15.36 33.792 34.816 33.792 18.432 0 33.792-15.36 33.792-33.792 0-169.984 137.216-307.2 307.2-307.2s307.2 137.216 307.2 307.2c0 18.432 15.36 33.792 33.792 33.792z" />
<glyph unicode="&#xe908;" glyph-name="arrow-down" d="M547.84 297.472l229.376 229.376c20.48 19.456 20.48 52.224 0 71.68-19.456 20.48-52.224 20.48-71.68 0l-193.536-192.512-193.536 192.512c-19.456 20.48-52.224 20.48-71.68 0-10.24-9.216-15.36-22.528-15.36-35.84s5.12-26.624 15.36-35.84l229.376-229.376c9.216-10.24 22.528-15.36 35.84-15.36s26.624 5.12 35.84 15.36z" />
<glyph unicode="&#xe909;" glyph-name="arrow-first" d="M838.976 814.080c13.312-13.248 13.344-34.784 0.096-48.096l-316.128-317.504 316.128-317.504c13.248-13.312 13.216-34.848-0.096-48.096s-34.848-13.216-48.096 0.096l-340 341.504c-13.216 13.28-13.216 34.72 0 47.968l340 341.504c13.248 13.312 34.784 13.344 48.096 0.096zM208.992 824c18.784 0 34.016-15.232 34.016-34.016v-683.008c0-18.784-15.232-34.016-34.016-34.016s-34.016 15.232-34.016 34.016v683.008c0 18.784 15.232 34.016 34.016 34.016z" />
<glyph unicode="&#xe90a;" glyph-name="arrow-last" d="M185.024 82.912c-13.312 13.248-13.344 34.784-0.096 48.096l316.128 317.504-316.128 317.504c-13.248 13.312-13.216 34.848 0.096 48.096s34.848 13.216 48.096-0.096l340-341.504c13.216-13.28 13.216-34.72 0-47.968l-340-341.504c-13.248-13.312-34.784-13.344-48.096-0.096zM815.008 72.992c-18.784 0-34.016 15.232-34.016 34.016v683.008c0 18.784 15.232 34.016 34.016 34.016s34.016-15.232 34.016-34.016v-683.008c0-18.784-15.232-34.016-34.016-34.016z" />
<glyph unicode="&#xe90b;" glyph-name="arrow-left" d="M361.472 412.16l229.376-229.376c19.456-20.48 52.224-20.48 71.68 0 20.48 19.456 20.48 52.224 0 71.68l-192.512 193.536 192.512 193.536c20.48 19.456 20.48 52.224 0 71.68-9.216 10.24-22.528 15.36-35.84 15.36s-26.624-5.12-35.84-15.36l-229.376-229.376c-10.24-9.216-15.36-22.528-15.36-35.84s5.12-26.624 15.36-35.84z" />
<glyph unicode="&#xe90c;" glyph-name="arrow-right" d="M662.528 483.84l-229.376 229.376c-19.456 20.48-52.224 20.48-71.68 0-20.48-19.456-20.48-52.224 0-71.68l192.512-193.536-192.512-193.536c-20.48-19.456-20.48-52.224 0-71.68 9.216-10.24 22.528-15.36 35.84-15.36s26.624 5.12 35.84 15.36l229.376 229.376c10.24 9.216 15.36 22.528 15.36 35.84s-5.12 26.624-15.36 35.84z" />
<glyph unicode="&#xe90d;" glyph-name="arrow-square-down" d="M667.648 580.096l-155.648-155.648-155.648 155.648c-20.48 20.48-52.224 20.48-72.704 0-19.456-19.456-19.456-52.224 0-72.704l192.512-191.488c9.216-9.216 22.528-15.36 35.84-15.36s26.624 6.144 35.84 15.36l192.512 191.488c19.456 20.48 19.456 53.248 0 72.704s-52.224 20.48-72.704 0zM912.384 848.384c-77.824 77.824-185.344 77.824-400.384 77.824s-322.56 0-400.384-77.824c-77.824-77.824-77.824-185.344-77.824-400.384s0-322.56 77.824-400.384c77.824-77.824 185.344-77.824 400.384-77.824s322.56 0 400.384 77.824c77.824 77.824 77.824 185.344 77.824 400.384s0 322.56-77.824 400.384zM839.68 120.32c-47.104-48.128-141.312-48.128-327.68-48.128s-280.576 0-327.68 48.128c-48.128 47.104-48.128 141.312-48.128 327.68s0 280.576 48.128 327.68c47.104 48.128 141.312 48.128 327.68 48.128s280.576 0 327.68-48.128 48.128-141.312 48.128-327.68c0-186.368 0-280.576-48.128-327.68z" />
<glyph unicode="&#xe90e;" glyph-name="arrow-square-in-right" d="M499.712 358.912c-21.504-18.432-23.552-51.2-5.12-71.68 10.24-12.288 24.576-18.432 38.912-18.432 11.264 0 23.552 4.096 32.768 12.288l149.504 128c1.024 1.024 2.048 2.048 3.072 3.072 4.096 4.096 8.192 9.216 10.24 14.336 1.024 1.024 1.024 2.048 1.024 3.072v0c0 0 1.024 0 1.024 1.024v0c1.024 3.072 2.048 6.144 2.048 10.24 0 0 0 0 0 0v0c1.024 2.048 1.024 5.12 1.024 7.168s0 5.12-1.024 7.168v0c0 0 0 0 0 0 0 4.096-1.024 7.168-2.048 11.264v0c0 0-1.024 0-1.024 0v0c0 1.024 0 2.048-1.024 3.072-2.048 5.12-6.144 10.24-10.24 15.36-1.024 1.024-2.048 2.048-3.072 3.072l-149.504 126.976c-21.504 18.432-53.248 16.384-71.68-5.12s-16.384-54.272 5.12-72.704l45.056-37.888h-459.776c-27.648 0-51.2-22.528-51.2-51.2s23.552-51.2 51.2-51.2h459.776l-45.056-37.888zM936.96 872.96c-52.224 53.248-123.904 53.248-253.952 53.248h-43.008c-130.048 0-201.728 0-254.976-53.248-47.104-47.104-51.2-114.688-52.224-210.944 0-28.672 22.528-51.2 51.2-52.224 28.672 1.024 51.2 23.552 51.2 51.2 1.024 79.872 4.096 121.856 22.528 140.288 21.504 21.504 71.68 22.528 182.272 22.528h43.008c110.592 0 160.768-1.024 182.272-22.528s22.528-71.68 22.528-182.272v-342.016c0-110.592-1.024-160.768-22.528-182.272s-71.68-22.528-182.272-22.528h-43.008c-110.592 0-160.768 1.024-182.272 22.528-18.432 18.432-21.504 60.416-22.528 140.288 0 28.672-22.528 51.2-51.2 51.2 0 0 0 0 0 0-28.672 0-51.2-23.552-51.2-52.224 1.024-96.256 5.12-163.84 52.224-210.944 53.248-53.248 124.928-53.248 254.976-53.248h43.008c130.048 0 201.728 0 253.952 53.248s53.248 123.904 53.248 253.952v342.016c0 130.048 0 201.728-53.248 253.952z" />
<glyph unicode="&#xe90f;" glyph-name="arrow-square-left" d="M644.096 292.352l-155.648 155.648 155.648 155.648c20.48 20.48 20.48 52.224 0 72.704-19.456 19.456-52.224 19.456-72.704 0l-191.488-192.512c-9.216-9.216-15.36-22.528-15.36-35.84s6.144-26.624 15.36-35.84l191.488-192.512c20.48-19.456 53.248-19.456 72.704 0s20.48 52.224 0 72.704zM912.384 47.616c77.824 77.824 77.824 185.344 77.824 400.384s0 322.56-77.824 400.384c-77.824 77.824-185.344 77.824-400.384 77.824s-322.56 0-400.384-77.824c-77.824-77.824-77.824-185.344-77.824-400.384s0-322.56 77.824-400.384c77.824-77.824 185.344-77.824 400.384-77.824s322.56 0 400.384 77.824zM184.32 120.32c-48.128 47.104-48.128 141.312-48.128 327.68s0 280.576 48.128 327.68c47.104 48.128 141.312 48.128 327.68 48.128s280.576 0 327.68-48.128c48.128-47.104 48.128-141.312 48.128-327.68s0-280.576-48.128-327.68-141.312-48.128-327.68-48.128c-186.368 0-280.576 0-327.68 48.128z" />
<glyph unicode="&#xe910;" glyph-name="arrow-square-out-left" d="M936.96 872.96c-52.224 53.248-123.904 53.248-253.952 53.248h-43.008c-130.048 0-201.728 0-254.976-53.248-47.104-47.104-51.2-114.688-52.224-210.944 0-28.672 22.528-51.2 51.2-52.224 28.672 1.024 51.2 23.552 51.2 51.2 1.024 79.872 4.096 121.856 22.528 140.288 21.504 21.504 71.68 22.528 182.272 22.528h43.008c110.592 0 160.768-1.024 182.272-22.528s22.528-71.68 22.528-182.272v-342.016c0-110.592-1.024-160.768-22.528-182.272s-71.68-22.528-182.272-22.528h-43.008c-110.592 0-160.768 1.024-182.272 22.528-18.432 18.432-21.504 60.416-22.528 140.288 0 28.672-22.528 51.2-51.2 51.2 0 0 0 0 0 0-28.672 0-51.2-23.552-51.2-52.224 1.024-96.256 5.12-163.84 52.224-210.944 53.248-53.248 124.928-53.248 254.976-53.248h43.008c130.048 0 201.728 0 253.952 53.248s53.248 123.904 53.248 253.952v342.016c0 130.048 0 201.728-53.248 253.952zM224.256 396.8h415.744c28.672 0 51.2 22.528 51.2 51.2s-22.528 51.2-51.2 51.2h-415.744l44.032 37.888c21.504 18.432 23.552 51.2 5.12 72.704s-50.176 23.552-71.68 5.12l-148.48-126.976c-2.048-1.024-3.072-2.048-4.096-4.096-4.096-4.096-7.168-8.192-10.24-14.336 0 0-1.024-1.024-1.024-2.048 0 0 0 0 0 0s0 0 0 0 0 0 0 0 0 0 0 0 0 0 0 0c-2.048-4.096-3.072-9.216-3.072-13.312 0 0 0 0 0 0s0 0 0 0c0-2.048-1.024-4.096-1.024-6.144s1.024-4.096 1.024-7.168c0 0 0 0 0 0 0-3.072 1.024-7.168 2.048-10.24 0 0 0 0 0 0 1.024-2.048 2.048-3.072 2.048-5.12 3.072-5.12 6.144-9.216 10.24-13.312 1.024-1.024 2.048-2.048 4.096-4.096l148.48-126.976c9.216-8.192 21.504-12.288 32.768-12.288 14.336 0 28.672 6.144 38.912 17.408 18.432 21.504 16.384 54.272-5.12 72.704l-44.032 37.888z" />
<glyph unicode="&#xe911;" glyph-name="arrow-square-out-up" d="M314.368 609.792h6.144c18.432 0 33.792-15.36 33.792-33.792s-15.36-33.792-33.792-33.792c-66.56 0-95.232 0-114.688-5.12-15.36-3.072-24.576-8.192-49.152-27.648-16.384-14.336-25.6-31.744-31.744-64.512-5.12-33.792-5.12-79.872-5.12-146.432s0-111.616 5.12-146.432c6.144-32.768 15.36-50.176 31.744-63.488 17.408-14.336 43.008-23.552 86.016-28.672 45.056-4.096 102.4-4.096 184.32-4.096h169.984c81.92 0 139.264 0 184.32 4.096 43.008 5.12 68.608 14.336 86.016 28.672 16.384 13.312 25.6 30.72 31.744 63.488 5.12 34.816 5.12 79.872 5.12 146.432s0 112.64-5.12 146.432c-6.144 32.768-15.36 50.176-31.744 64.512-24.576 19.456-33.792 24.576-49.152 27.648-19.456 5.12-48.128 5.12-113.664 5.12-19.456 0-34.816 15.36-34.816 33.792s15.36 33.792 34.816 33.792h5.12c58.368 0 95.232 0 122.88-5.12 32.768-7.168 52.224-22.528 77.824-43.008 33.792-26.624 49.152-62.464 56.32-105.472 6.144-39.936 6.144-92.16 6.144-154.624v-6.144c0-62.464 0-113.664-6.144-154.624-7.168-43.008-22.528-77.824-56.32-105.472-32.768-26.624-72.704-37.888-121.856-43.008-48.128-5.12-110.592-5.12-189.44-5.12h-174.080c-78.848 0-141.312 0-189.44 5.12-49.152 5.12-89.088 16.384-121.856 43.008-33.792 27.648-48.128 62.464-55.296 105.472-7.168 40.96-7.168 92.16-7.168 154.624v6.144c0 62.464 0 114.688 7.168 154.624 7.168 43.008 21.504 78.848 55.296 105.472 25.6 20.48 45.056 35.84 77.824 43.008 27.648 5.12 64.512 5.12 122.88 5.12zM512 288.256c17.408 0 31.744 14.336 31.744 31.744v467.968l71.68-82.944c12.288-14.336 31.744-15.36 45.056-4.096s15.36 31.744 4.096 45.056l-128 149.504c-6.144 7.168-15.36 11.264-24.576 11.264s-18.432-4.096-24.576-11.264l-128-149.504c-11.264-13.312-9.216-33.792 4.096-45.056s33.792-10.24 45.056 4.096l71.68 82.944v-467.968c0-17.408 14.336-31.744 31.744-31.744z" />
<glyph unicode="&#xe912;" glyph-name="arrow-square-right" d="M379.904 603.648l155.648-155.648-155.648-155.648c-20.48-20.48-20.48-52.224 0-72.704 19.456-19.456 52.224-19.456 72.704 0l191.488 192.512c10.24 9.216 15.36 22.528 15.36 35.84s-5.12 26.624-15.36 35.84l-191.488 192.512c-20.48 19.456-53.248 19.456-72.704 0s-20.48-52.224 0-72.704zM111.616 848.384c-77.824-77.824-77.824-185.344-77.824-400.384s0-322.56 77.824-400.384c77.824-77.824 185.344-77.824 400.384-77.824s322.56 0 400.384 77.824c77.824 77.824 77.824 185.344 77.824 400.384s0 322.56-77.824 400.384c-77.824 77.824-185.344 77.824-400.384 77.824s-322.56 0-400.384-77.824zM839.68 775.68c48.128-47.104 48.128-141.312 48.128-327.68s0-280.576-48.128-327.68c-47.104-48.128-141.312-48.128-327.68-48.128s-280.576 0-327.68 48.128c-48.128 47.104-48.128 141.312-48.128 327.68s0 280.576 48.128 327.68 141.312 48.128 327.68 48.128c186.368 0 280.576 0 327.68-48.128z" />
<glyph unicode="&#xe913;" glyph-name="arrow-square-up" d="M356.352 315.904l155.648 155.648 155.648-155.648c20.48-20.48 52.224-20.48 72.704 0 19.456 19.456 19.456 52.224 0 72.704l-192.512 191.488c-9.216 10.24-22.528 15.36-35.84 15.36s-26.624-5.12-35.84-15.36l-192.512-191.488c-19.456-20.48-19.456-53.248 0-72.704s52.224-20.48 72.704 0zM111.616 47.616c77.824-77.824 185.344-77.824 400.384-77.824s322.56 0 400.384 77.824c77.824 77.824 77.824 185.344 77.824 400.384s0 322.56-77.824 400.384c-77.824 77.824-185.344 77.824-400.384 77.824s-322.56 0-400.384-77.824c-77.824-77.824-77.824-185.344-77.824-400.384s0-322.56 77.824-400.384zM184.32 775.68c47.104 48.128 141.312 48.128 327.68 48.128s280.576 0 327.68-48.128c48.128-47.104 48.128-141.312 48.128-327.68s0-280.576-48.128-327.68c-47.104-48.128-141.312-48.128-327.68-48.128s-280.576 0-327.68 48.128-48.128 141.312-48.128 327.68c0 186.368 0 280.576 48.128 327.68z" />
<glyph unicode="&#xe914;" glyph-name="arrow-up" d="M476.16 598.528l-229.376-229.376c-20.48-19.456-20.48-52.224 0-71.68 19.456-20.48 52.224-20.48 71.68 0l193.536 192.512 193.536-192.512c19.456-20.48 52.224-20.48 71.68 0 10.24 9.216 15.36 22.528 15.36 35.84s-5.12 26.624-15.36 35.84l-229.376 229.376c-9.216 10.24-22.528 15.36-35.84 15.36s-26.624-5.12-35.84-15.36z" />
<glyph unicode="&#xe915;" glyph-name="asterisk" d="M824.32 423.424l-41.984 24.576 41.984 24.576c28.672 17.408 50.176 41.984 62.464 72.704 8.192 19.456 10.24 40.96 8.192 62.464s-9.216 41.984-20.48 59.392c-11.264 18.432-27.648 33.792-46.080 45.056s-38.912 18.432-61.44 20.48c-32.768 3.072-66.56-5.12-94.208-23.552l-14.336-8.192v25.6c0 35.84-12.288 70.656-36.864 98.304s-58.368 45.056-95.232 49.152c-20.48 2.048-40.96 0-60.416-6.144s-36.864-16.384-52.224-29.696c-14.336-13.312-26.624-29.696-34.816-48.128s-13.312-37.888-13.312-57.344v-31.744l-14.336 8.192c-27.648 18.432-61.44 26.624-94.208 23.552-21.504-2.048-43.008-9.216-61.44-20.48s-34.816-26.624-46.080-44.032c-11.264-18.432-18.432-38.912-20.48-60.416-2.048-20.48 0-41.984 8.192-62.464 12.288-29.696 34.816-55.296 63.488-71.68l40.96-25.6-40.96-24.576c-28.672-16.384-51.2-41.984-63.488-72.704-8.192-19.456-10.24-40.96-8.192-62.464s9.216-41.984 20.48-59.392c12.288-18.432 27.648-33.792 46.080-45.056s39.936-18.432 61.44-20.48c33.792-2.048 66.56 6.144 94.208 23.552l14.336 9.216v-32.768c0-37.888 15.36-73.728 43.008-100.352s64.512-41.984 103.424-41.984c38.912 0 75.776 15.36 103.424 41.984s43.008 62.464 43.008 100.352v32.768l14.336-9.216c27.648-17.408 61.44-25.6 94.208-23.552 21.504 2.048 43.008 9.216 61.44 20.48s34.816 26.624 46.080 45.056c11.264 17.408 18.432 37.888 20.48 59.392s0 43.008-8.192 62.464c-12.288 30.72-34.816 56.32-62.464 72.704zM812.032 265.728c-9.216-15.36-24.576-25.6-43.008-29.696s-36.864-1.024-53.248 8.192l-74.752 46.080c-6.144 3.072-12.288 5.12-18.432 5.12s-13.312-2.048-18.432-5.12c-6.144-3.072-10.24-7.168-14.336-12.288-3.072-6.144-5.12-12.288-5.12-18.432v-96.256c0-18.432-7.168-36.864-20.48-50.176-14.336-13.312-32.768-20.48-52.224-20.48s-37.888 7.168-51.2 20.48c-14.336 13.312-21.504 31.744-21.504 50.176v96.256c0 6.144-2.048 12.288-5.12 18.432-3.072 5.12-8.192 9.216-14.336 12.288-5.12 3.072-11.264 5.12-18.432 5.12-6.144 0-12.288-2.048-18.432-6.144l-74.752-45.056c-8.192-5.12-16.384-8.192-25.6-9.216-9.216-2.048-18.432-1.024-27.648 1.024-8.192 2.048-17.408 5.12-24.576 10.24s-13.312 12.288-18.432 19.456c-5.12 8.192-8.192 16.384-10.24 25.6-1.024 8.192-1.024 17.408 1.024 25.6 2.048 9.216 6.144 17.408 11.264 24.576s12.288 13.312 20.48 18.432l95.232 58.368c5.12 3.072 10.24 7.168 13.312 12.288s4.096 11.264 4.096 17.408c0 6.144-1.024 12.288-4.096 17.408s-8.192 9.216-13.312 13.312l-95.232 57.344c-16.384 10.24-27.648 25.6-31.744 43.008s-1.024 35.84 9.216 51.2c9.216 15.36 25.6 26.624 43.008 30.72 18.432 4.096 36.864 1.024 53.248-9.216l74.752-45.056c6.144-4.096 12.288-5.12 18.432-6.144 7.168 0 13.312 2.048 18.432 5.12 6.144 3.072 11.264 7.168 14.336 13.312 3.072 5.12 5.12 11.264 5.12 17.408v92.16c-1.024 17.408 5.12 34.816 16.384 48.128s26.624 22.528 44.032 25.6c10.24 2.048 21.504 2.048 31.744-1.024s19.456-8.192 27.648-14.336c8.192-7.168 14.336-15.36 19.456-24.576 4.096-9.216 6.144-19.456 6.144-29.696v-96.256c0-6.144 2.048-12.288 5.12-18.432 4.096-5.12 8.192-9.216 14.336-12.288 5.12-3.072 12.288-5.12 18.432-5.12 6.144 1.024 12.288 2.048 18.432 6.144l74.752 45.056c8.192 5.12 16.384 8.192 25.6 9.216 9.216 2.048 18.432 1.024 27.648-1.024s17.408-5.12 24.576-10.24c7.168-5.12 14.336-12.288 18.432-19.456 5.12-8.192 8.192-16.384 10.24-24.576 1.024-9.216 1.024-18.432-1.024-26.624-2.048-9.216-6.144-17.408-11.264-24.576s-12.288-13.312-19.456-18.432l-96.256-58.368c-5.12-3.072-9.216-7.168-12.288-12.288s-5.12-11.264-5.12-17.408c0-6.144 2.048-12.288 5.12-17.408s7.168-9.216 12.288-13.312l96.256-57.344c7.168-5.12 14.336-11.264 19.456-18.432s9.216-15.36 11.264-24.576c2.048-8.192 2.048-17.408 1.024-26.624-2.048-8.192-5.12-16.384-10.24-24.576v0z" />
<glyph unicode="&#xe916;" glyph-name="asterisk-circle" d="M512 840.192c-217.088 0-392.192-175.104-392.192-392.192s175.104-392.192 392.192-392.192c217.088 0 392.192 175.104 392.192 392.192s-175.104 392.192-392.192 392.192zM51.2 448c0 254.976 206.848 460.8 460.8 460.8 254.976 0 460.8-205.824 460.8-460.8 0-253.952-205.824-460.8-460.8-460.8-253.952 0-460.8 206.848-460.8 460.8zM468.992 619.008c0 23.552 19.456 41.984 43.008 41.984s43.008-18.432 43.008-41.984v-97.28l83.968 48.128c19.456 12.288 46.080 5.12 57.344-15.36 12.288-20.48 5.12-46.080-15.36-58.368l-83.968-48.128 83.968-48.128c20.48-12.288 27.648-37.888 15.36-58.368-11.264-20.48-37.888-27.648-57.344-15.36l-83.968 48.128v-97.28c0-23.552-19.456-41.984-43.008-41.984s-43.008 18.432-43.008 41.984v97.28l-82.944-48.128c-20.48-12.288-47.104-5.12-58.368 15.36-12.288 20.48-5.12 46.080 15.36 58.368l83.968 48.128-83.968 48.128c-20.48 12.288-27.648 37.888-15.36 58.368 11.264 20.48 37.888 27.648 58.368 15.36l82.944-48.128v97.28z" />
<glyph unicode="&#xe917;" glyph-name="asterisk-circle-filled" d="M51.2 448c0 254.976 206.848 460.8 460.8 460.8 254.976 0 460.8-205.824 460.8-460.8 0-253.952-205.824-460.8-460.8-460.8-253.952 0-460.8 206.848-460.8 460.8zM468.992 619.008v-97.28l-82.944 48.128c-20.48 12.288-47.104 5.12-58.368-15.36-12.288-20.48-5.12-46.080 15.36-58.368l83.968-48.128-83.968-48.128c-20.48-12.288-27.648-37.888-15.36-58.368 11.264-20.48 37.888-27.648 58.368-15.36l82.944 48.128v-97.28c0-23.552 19.456-41.984 43.008-41.984s43.008 18.432 43.008 41.984v97.28l83.968-48.128c19.456-12.288 46.080-5.12 57.344 15.36 12.288 20.48 5.12 46.080-15.36 58.368l-83.968 48.128 83.968 48.128c20.48 12.288 27.648 37.888 15.36 58.368-11.264 20.48-37.888 27.648-57.344 15.36l-83.968-48.128v97.28c0 23.552-19.456 41.984-43.008 41.984s-43.008-18.432-43.008-41.984z" />
<glyph unicode="&#xe918;" glyph-name="asterisk-filled" d="M841.728 372.224l-120.832 75.776 120.832 75.776c13.312 7.168 23.552 17.408 32.768 29.696 8.192 12.288 15.36 25.6 18.432 39.936 3.072 15.36 4.096 29.696 2.048 45.056-3.072 14.336-8.192 28.672-15.36 41.984-8.192 12.288-18.432 23.552-30.72 31.744-11.264 9.216-25.6 15.36-39.936 18.432s-28.672 4.096-43.008 1.024c-15.36-2.048-28.672-8.192-40.96-16.384l-109.568-71.68v124.928c0 27.648-11.264 55.296-30.72 74.752-19.456 20.48-46.080 31.744-74.752 31.744-27.648 0-54.272-11.264-73.728-31.744-19.456-19.456-30.72-47.104-30.72-74.752v-128l-109.568 74.752c-24.576 15.36-54.272 20.48-82.944 13.312s-53.248-25.6-68.608-50.176c-15.36-25.6-20.48-55.296-13.312-84.992 6.144-28.672 23.552-54.272 48.128-69.632l120.832-75.776-120.832-75.776c-24.576-15.36-41.984-40.96-48.128-69.632-7.168-28.672-2.048-59.392 13.312-84.992 15.36-24.576 39.936-43.008 68.608-50.176 28.672-6.144 58.368-2.048 82.944 13.312l109.568 72.704v-124.928c0-28.672 11.264-56.32 30.72-75.776 19.456-20.48 46.080-31.744 73.728-31.744 28.672 0 55.296 11.264 74.752 31.744 19.456 19.456 30.72 47.104 30.72 75.776v126.976l109.568-74.752c24.576-15.36 54.272-19.456 82.944-13.312 28.672 7.168 52.224 25.6 67.584 50.176 16.384 25.6 20.48 56.32 14.336 84.992s-23.552 54.272-48.128 69.632v0z" />
<glyph unicode="&#xe919;" glyph-name="attachment" d="M481.28 767.488c68.608 68.608 180.224 68.608 248.832 0s68.608-180.224 0-248.832l-230.4-230.4c-32.768-32.768-84.992-32.768-116.736 0-32.768 31.744-32.768 83.968 0 116.736l230.4 230.4c13.312 13.312 13.312 34.816 0 48.128s-34.816 13.312-48.128 0l-231.424-230.4c-58.368-59.392-58.368-154.624 0-214.016 59.392-58.368 154.624-58.368 214.016 0l230.4 231.424c96.256 95.232 96.256 249.856 0 345.088-95.232 95.232-249.856 95.232-345.088 0l-230.4-230.4c-132.096-132.096-132.096-346.112 0-478.208 131.072-131.072 345.088-131.072 477.184 0l230.4 231.424c13.312 13.312 13.312 34.816 0 48.128s-34.816 13.312-48.128 0l-230.4-230.4c-105.472-105.472-276.48-105.472-380.928 0-105.472 104.448-105.472 275.456 0 380.928l230.4 230.4z" />
<glyph unicode="&#xe91a;" glyph-name="bag" d="M691.2 774.656c-6.144 70.656-63.488 128-128 128h-102.4c-70.656 0-121.856-57.344-128-128-191.488-38.912-268.288-153.6-268.288-384 0-294.912 120.832-403.456 441.344-403.456 326.656 0 441.344 108.544 441.344 403.456 6.144 230.4-63.488 345.088-256 384zM460.8 812.544h102.4c13.312 0 25.6-6.144 31.744-18.432-25.6-7.168-51.2 0-82.944 0s-57.344 0-82.944-7.168c6.144 13.312 12.288 25.6 31.744 25.6zM512 691.712c224.256 0 307.2-45.056 332.8-192.512-96.256-51.2-210.944-82.944-332.8-82.944 0 0 0 0 0 0s0 0 0 0c-128 0-242.688 31.744-332.8 82.944 19.456 147.456 108.544 192.512 332.8 192.512zM512 89.6c-268.288 0-338.944 64.512-338.944 294.912 82.944-38.912 185.344-58.368 287.744-64.512v-63.488c0-25.6 25.6-51.2 51.2-51.2s51.2 25.6 51.2 51.2v63.488c102.4 6.144 204.8 31.744 287.744 70.656 0-236.544-69.632-301.056-338.944-301.056z" />
<glyph unicode="&#xe91b;" glyph-name="balloon" d="M851.968 590.336c-2.048 198.656-135.168 327.68-339.968 329.728-1.024 0-2.048 0-3.072 0-104.448 0-195.584-33.792-257.024-96.256-58.368-58.368-89.088-137.216-88.064-229.376 1.024-157.696 90.112-319.488 242.688-371.712-2.048-4.096-4.096-8.192-5.12-12.288-8.192-26.624-5.12-55.296 9.216-78.848s37.888-40.96 65.536-46.080c3.072-2.048 5.12-4.096 8.192-5.12l34.816-11.264c0 0 0 0 0 0-3.072-21.504-6.144-44.032 8.192-66.56 14.336-23.552 35.84-30.72 56.32-37.888l39.936-13.312c5.12-2.048 11.264-3.072 16.384-3.072 21.504 0 40.96 14.336 48.128 34.816 9.216 27.648-5.12 56.32-31.744 65.536l-34.816 11.264c0 0 0 0 0 1.024 3.072 20.48 6.144 43.008-8.192 66.56 0 0-1.024 1.024-2.048 2.048 1.024 0 2.048 1.024 2.048 2.048 14.336 23.552 17.408 52.224 9.216 77.824-1.024 5.12-3.072 9.216-5.12 14.336 44.032 15.36 84.992 39.936 119.808 75.776 73.728 73.728 115.712 179.2 114.688 290.816zM518.144 192c1.024-3.072 2.048-5.12 3.072-6.144 0 0 0 0 0 0-5.12 0-14.336 0-18.432 0 1.024 1.024 2.048 3.072 3.072 6.144 2.048 4.096 3.072 8.192 4.096 13.312 1.024 0 1.024 0 2.048 0 0 0 1.024 0 2.048 0 1.024-5.12 2.048-9.216 4.096-13.312zM509.952 307.712c-151.552 1.024-242.688 147.456-243.712 287.744 0 63.488 19.456 117.76 57.344 156.672 44.032 43.008 108.544 67.584 188.416 65.536 149.504-1.024 236.544-83.968 237.568-228.352 0-82.944-30.72-163.84-83.968-217.088-43.008-43.008-95.232-65.536-155.648-64.512zM535.552 775.68c-28.672 0-52.224-21.504-53.248-50.176-1.024-27.648 21.504-51.2 49.152-52.224 44.032-2.048 78.848-51.2 78.848-90.112 0-28.672 22.528-52.224 50.176-52.224 1.024 0 1.024 0 1.024 0 27.648 0 51.2 22.528 51.2 51.2 1.024 99.328-81.92 190.464-177.152 193.536z" />
<glyph unicode="&#xe91c;" glyph-name="bandage" d="M541.696 598.528c-16.384 16.384-43.008 16.384-59.392 0-17.408-16.384-17.408-43.008 0-60.416 16.384-16.384 43.008-16.384 59.392 0 17.408 17.408 17.408 44.032 0 60.416zM421.888 477.696c-16.384 17.408-44.032 17.408-60.416 0-16.384-16.384-16.384-43.008 0-59.392 16.384-17.408 44.032-17.408 60.416 0 16.384 16.384 16.384 43.008 0 59.392zM541.696 357.888c-16.384 16.384-43.008 16.384-59.392 0-17.408-17.408-17.408-44.032 0-60.416 16.384-16.384 43.008-16.384 59.392 0 17.408 16.384 17.408 43.008 0 60.416zM662.528 418.304c16.384 16.384 16.384 43.008 0 59.392-16.384 17.408-43.008 17.408-60.416 0-16.384-16.384-16.384-43.008 0-59.392 17.408-17.408 44.032-17.408 60.416 0zM505.856 852.48c-145.408 102.4-232.448 79.872-355.328-43.008s-145.408-209.92-41.984-355.328c6.144-9.216 12.288-18.432 20.48-27.648 6.144-9.216 13.312-17.408 20.48-26.624 39.936-47.104 90.112-100.352 151.552-162.816 62.464-61.44 115.712-111.616 162.816-151.552 9.216-7.168 18.432-14.336 26.624-21.504 9.216-7.168 18.432-13.312 27.648-20.48 146.432-102.4 232.448-79.872 355.328 43.008s145.408 209.92 43.008 355.328c-6.144 9.216-13.312 18.432-20.48 27.648-7.168 8.192-14.336 17.408-21.504 26.624-38.912 47.104-89.088 100.352-151.552 162.816-61.44 61.44-115.712 111.616-162.816 151.552-9.216 7.168-17.408 14.336-26.624 20.48-9.216 8.192-18.432 14.336-27.648 21.504zM825.344 448l-313.344-313.344c-46.080 36.864-99.328 87.040-162.816 150.528s-112.64 116.736-150.528 162.816l313.344 313.344c46.080-36.864 99.328-87.040 162.816-150.528s113.664-116.736 150.528-162.816zM867.328 392.704c38.912-57.344 48.128-93.184 45.056-120.832-2.048-33.792-23.552-73.728-87.040-137.216s-103.424-84.992-137.216-87.040c-26.624-3.072-63.488 7.168-120.832 45.056l300.032 300.032zM156.672 503.296c-37.888 57.344-48.128 93.184-45.056 120.832 2.048 33.792 23.552 73.728 87.040 137.216s103.424 84.992 137.216 87.040c27.648 3.072 63.488-7.168 120.832-45.056l-300.032-300.032z" />
<glyph unicode="&#xe91d;" glyph-name="bars-hamburger" d="M852.992 200.192h-681.984c-28.672 0-51.2-22.528-51.2-51.2s22.528-51.2 51.2-51.2h681.984c28.672 0 51.2 23.552 51.2 51.2s-22.528 51.2-51.2 51.2zM171.008 695.808h681.984c28.672 0 51.2 22.528 51.2 51.2s-22.528 51.2-51.2 51.2h-681.984c-28.672 0-51.2-23.552-51.2-51.2s22.528-51.2 51.2-51.2zM852.992 499.2h-681.984c-28.672 0-51.2-22.528-51.2-51.2s22.528-51.2 51.2-51.2h681.984c28.672 0 51.2 22.528 51.2 51.2s-22.528 51.2-51.2 51.2z" />
<glyph unicode="&#xe91e;" glyph-name="bars-hamburger-2" d="M852.992 200.192h-681.984c-28.672 0-51.2-22.528-51.2-51.2s22.528-51.2 51.2-51.2h681.984c28.672 0 51.2 23.552 51.2 51.2s-22.528 51.2-51.2 51.2zM171.008 695.808h425.984c28.672 0 51.2 22.528 51.2 51.2s-22.528 51.2-51.2 51.2h-425.984c-28.672 0-51.2-23.552-51.2-51.2s22.528-51.2 51.2-51.2zM852.992 499.2h-681.984c-28.672 0-51.2-22.528-51.2-51.2s22.528-51.2 51.2-51.2h681.984c28.672 0 51.2 22.528 51.2 51.2s-22.528 51.2-51.2 51.2z" />
<glyph unicode="&#xe91f;" glyph-name="bell" d="M582.656 96.768c-37.888-31.744-103.424-31.744-141.312 0-22.528 17.408-54.272 14.336-71.68-7.168-18.432-22.528-15.36-54.272 7.168-72.704 36.864-29.696 84.992-47.104 135.168-47.104s98.304 17.408 135.168 47.104c22.528 18.432 25.6 50.176 8.192 72.704-18.432 21.504-50.176 24.576-72.704 7.168zM866.304 454.144c-28.672 26.624-28.672 50.176-26.624 105.472 0 12.288 1.024 24.576 1.024 37.888 0 187.392-141.312 328.704-328.704 328.704s-328.704-141.312-328.704-328.704c0-13.312 1.024-26.624 1.024-37.888 2.048-55.296 2.048-78.848-28.672-106.496-64.512-65.536-54.272-123.904-43.008-152.576 50.176-120.832 290.816-159.744 399.36-159.744s349.184 38.912 399.36 159.744c11.264 28.672 21.504 87.040-45.056 153.6zM816.128 339.456c-19.456-47.104-175.104-96.256-304.128-96.256s-284.672 49.152-304.128 96.256c-5.12 12.288 8.192 28.672 18.432 38.912 64.512 59.392 62.464 125.952 60.416 184.32 0 11.264-1.024 22.528-1.024 34.816 0 112.64 77.824 226.304 226.304 226.304s226.304-113.664 226.304-226.304c0-12.288-1.024-23.552-1.024-34.816-2.048-58.368-4.096-124.928 58.368-182.272 12.288-12.288 25.6-28.672 20.48-40.96z" />
<glyph unicode="&#xe920;" glyph-name="bell-ringing" d="M815.104 425.472c-21.504 20.48-22.528 38.912-20.48 87.040 0 11.264 1.024 22.528 1.024 33.792 0 167.936-121.856 293.888-283.648 293.888s-283.648-125.952-283.648-293.888c0-11.264 1.024-22.528 1.024-32.768 2.048-49.152 1.024-67.584-22.528-89.088-57.344-61.44-47.104-115.712-35.84-142.336 46.080-106.496 249.856-141.312 340.992-141.312s294.912 34.816 340.992 141.312c11.264 26.624 21.504 80.896-37.888 143.36zM512 243.2c-112.64 0-231.424 44.032-246.784 79.872-3.072 8.192 10.24 23.552 14.336 28.672 56.32 53.248 54.272 112.64 52.224 164.864 0 9.216-1.024 19.456-1.024 29.696 0 92.16 57.344 191.488 181.248 191.488 124.928 0 181.248-99.328 181.248-191.488 0-10.24-1.024-20.48-1.024-29.696-2.048-52.224-4.096-111.616 50.176-163.84 6.144-6.144 20.48-21.504 16.384-29.696-15.36-35.84-134.144-79.872-246.784-79.872zM582.656 96.768c-37.888-31.744-103.424-31.744-141.312 0-22.528 17.408-54.272 14.336-71.68-7.168-18.432-22.528-15.36-54.272 7.168-72.704 36.864-29.696 84.992-47.104 135.168-47.104s98.304 17.408 135.168 47.104c22.528 18.432 25.6 50.176 8.192 72.704-18.432 21.504-50.176 24.576-72.704 7.168zM176.128 583.168h-102.4c-28.672 0-51.2 22.528-51.2 51.2s22.528 51.2 51.2 51.2h102.4c28.672 0 51.2-22.528 51.2-51.2s-22.528-51.2-51.2-51.2zM245.76 752.128c-12.288 0-25.6 5.12-35.84 15.36l-72.704 71.68c-19.456 20.48-19.456 53.248 0 72.704 20.48 20.48 53.248 20.48 72.704 0l72.704-72.704c19.456-19.456 19.456-52.224 0-71.68-10.24-10.24-23.552-15.36-36.864-15.36zM892.928 843.264c19.456 20.48 18.432 53.248-2.048 72.704-21.504 18.432-53.248 17.408-72.704-3.072l-71.68-76.8c-19.456-20.48-18.432-53.248 2.048-72.704 10.24-9.216 22.528-13.312 34.816-13.312 14.336 0 27.648 5.12 37.888 16.384l71.68 76.8zM954.368 673.28h-101.376c-28.672 0-51.2-22.528-51.2-51.2s22.528-51.2 51.2-51.2h101.376c28.672 0 51.2 22.528 51.2 51.2s-22.528 51.2-51.2 51.2z" />
<glyph unicode="&#xe921;" glyph-name="bill" d="M937.984 801.28c-17.408 53.248-59.392 96.256-111.616 114.688-28.672 10.24-58.368 10.24-111.616 10.24h-405.504c-53.248 0-82.944 0-110.592-10.24-53.248-18.432-95.232-61.44-112.64-114.688-9.216-28.672-9.216-58.368-9.216-112.64v-598.016c0-36.864 21.504-70.656 55.296-86.016 30.72-13.312 65.536-9.216 91.136 10.24l14.336-12.288c47.104-43.008 117.76-43.008 164.864 0 8.192 7.168 19.456 7.168 26.624 0 47.104-43.008 118.784-43.008 165.888 0 7.168 7.168 18.432 7.168 26.624 0 23.552-21.504 53.248-32.768 82.944-32.768s58.368 11.264 81.92 32.768l14.336 12.288c25.6-19.456 60.416-23.552 91.136-10.24 33.792 15.36 55.296 49.152 55.296 86.016v598.016c0 54.272 0 83.968-9.216 112.64zM844.8 109.056c-33.792 19.456-76.8 15.36-106.496-12.288l-20.48-18.432c-8.192-7.168-19.456-7.168-27.648-1.024-23.552 22.528-52.224 32.768-81.92 32.768s-59.392-10.24-82.944-31.744c-7.168-7.168-18.432-7.168-26.624-1.024-47.104 44.032-117.76 44.032-164.864 1.024-8.192-7.168-19.456-7.168-27.648-1.024l-20.48 19.456c-29.696 27.648-72.704 31.744-106.496 12.288v579.584c0 41.984 0 67.584 4.096 80.896 8.192 23.552 25.6 41.984 48.128 50.176 12.288 4.096 36.864 4.096 77.824 4.096h405.504c40.96 0 65.536 0 77.824-4.096 22.528-8.192 39.936-26.624 48.128-50.176 4.096-13.312 4.096-38.912 4.096-80.896v-579.584zM373.76 608.768h276.48c28.672 0 51.2 22.528 51.2 51.2s-22.528 51.2-51.2 51.2h-276.48c-28.672 0-51.2-22.528-51.2-51.2s22.528-51.2 51.2-51.2zM650.24 518.656h-276.48c-28.672 0-51.2-22.528-51.2-51.2 0-27.648 22.528-51.2 51.2-51.2h276.48c28.672 0 51.2 23.552 51.2 51.2 0 28.672-22.528 51.2-51.2 51.2zM650.24 327.168h-276.48c-28.672 0-51.2-23.552-51.2-51.2s22.528-51.2 51.2-51.2h276.48c28.672 0 51.2 22.528 51.2 51.2s-22.528 51.2-51.2 51.2z" />
<glyph unicode="&#xe922;" glyph-name="bolt" d="M875.52 517.632c-15.36 27.648-44.032 35.84-71.68 39.936-28.672 4.096-65.536 4.096-110.592 4.096h-3.072c-26.624 0-44.032 0-57.344 2.048-11.264 2.048-15.36 4.096-16.384 5.12s-3.072 4.096-5.12 14.336c-1.024 12.288-1.024 28.672-1.024 54.272v16.384c0 67.584 0 121.856-5.12 160.768-5.12 35.84-16.384 76.8-57.344 89.088-38.912 12.288-72.704-14.336-98.304-40.96-27.648-28.672-60.416-72.704-101.376-128l-133.12-181.248c-26.624-34.816-48.128-64.512-61.44-88.064-12.288-24.576-22.528-53.248-8.192-82.944h1.024v-1.024l1.024-1.024c15.36-27.648 44.032-36.864 72.704-40.96 28.672-5.12 66.56-5.12 113.664-5.12 26.624 0 44.032 0 57.344-1.024 11.264-2.048 14.336-4.096 15.36-5.12 2.048-2.048 4.096-5.12 5.12-15.36 2.048-12.288 2.048-28.672 2.048-54.272v-16.384c0-67.584 0-121.856 5.12-160.768 5.12-35.84 17.408-76.8 57.344-89.088s72.704 14.336 98.304 40.96c27.648 28.672 60.416 72.704 101.376 128l132.096 179.2c26.624 35.84 49.152 66.56 62.464 92.16 12.288 24.576 21.504 53.248 7.168 81.92v0 0l-1.024 1.024v1.024l-1.024 1.024zM495.616 818.688c12.288 12.288 20.48 19.456 26.624 22.528 5.12 2.048 6.144 1.024 7.168 1.024v0 0c0 0 2.048 0 4.096-4.096 3.072-6.144 6.144-15.36 8.192-32.768 4.096-33.792 4.096-82.944 4.096-154.624v-15.36c0-23.552 0-44.032 3.072-61.44 2.048-17.408 8.192-35.84 22.528-51.2h1.024c15.36-14.336 33.792-19.456 52.224-22.528 17.408-2.048 39.936-3.072 65.536-3.072 49.152 0 81.92 0 104.448-3.072 20.48-3.072 24.576-7.168 25.6-8.192 1.024-2.048 2.048-7.168-7.168-24.576-10.24-19.456-28.672-45.056-56.32-82.944l-131.072-177.152c-43.008-57.344-72.704-98.304-97.28-123.904-12.288-12.288-20.48-19.456-26.624-22.528-5.12-2.048-6.144-1.024-7.168-1.024v0 0c0 0-1.024 0-4.096 4.096-2.048 6.144-5.12 15.36-8.192 32.768-4.096 33.792-4.096 83.968-4.096 154.624v13.312c0 24.576 0 46.080-3.072 63.488-3.072 18.432-9.216 36.864-23.552 52.224v0h-1.024c-14.336 14.336-32.768 19.456-51.2 22.528-17.408 2.048-38.912 2.048-63.488 2.048h-2.048c-48.128 0-80.896 0-104.448 3.072-20.48 4.096-25.6 8.192-26.624 10.24 0 0 0 1.024 0 3.072 1.024 4.096 3.072 10.24 7.168 19.456 11.264 19.456 29.696 45.056 57.344 82.944l131.072 177.152c43.008 58.368 72.704 98.304 97.28 123.904z" />
<glyph unicode="&#xe923;" glyph-name="bone" d="M943.104 727.552c-27.648 28.672-65.536 45.056-105.472 46.080-1.024 39.936-17.408 77.824-46.080 105.472-60.416 60.416-164.864 60.416-224.256 0v0c-46.080-45.056-66.56-119.808-49.152-180.224 3.072-11.264 2.048-18.432 3.072-17.408l-240.64-240.64c-1.024-1.024-8.192-2.048-19.456 2.048-60.416 16.384-135.168-4.096-180.224-50.176-29.696-29.696-47.104-69.632-47.104-111.616 0-43.008 16.384-82.944 47.104-112.64 28.672-28.672 66.56-44.032 105.472-46.080 1.024-39.936 17.408-77.824 46.080-105.472 30.72-31.744 71.68-47.104 112.64-47.104s80.896 15.36 111.616 47.104c46.080 45.056 66.56 119.808 50.176 180.224-4.096 11.264-2.048 18.432-4.096 17.408l240.64 240.64c1.024 1.024 8.192 2.048 20.48-1.024 60.416-17.408 134.144 3.072 179.2 49.152 30.72 29.696 47.104 69.632 47.104 111.616s-16.384 82.944-47.104 112.64zM871.424 574.976c-19.456-18.432-56.32-29.696-80.896-22.528-47.104 13.312-90.112 5.12-116.736-22.528l-243.712-243.712c-27.648-26.624-35.84-69.632-22.528-116.736 7.168-24.576-4.096-61.44-22.528-80.896-22.528-21.504-58.368-21.504-79.872 0-10.24 11.264-16.384 25.6-16.384 39.936 0 15.36 6.144 29.696 16.384 39.936s15.36 23.552 15.36 36.864c0 12.288-5.12 25.6-15.36 35.84-20.48 19.456-52.224 19.456-72.704 0-21.504-21.504-57.344-21.504-79.872 0-10.24 10.24-16.384 24.576-16.384 39.936 0 14.336 6.144 28.672 16.384 39.936 19.456 18.432 56.32 29.696 80.896 22.528 47.104-12.288 90.112-5.12 116.736 22.528l243.712 243.712c27.648 26.624 35.84 69.632 22.528 116.736-7.168 24.576 4.096 61.44 22.528 80.896 21.504 20.48 59.392 20.48 79.872 0 11.264-11.264 16.384-25.6 16.384-39.936s-5.12-29.696-16.384-39.936c-10.24-10.24-14.336-23.552-14.336-35.84 0-13.312 4.096-26.624 14.336-36.864 20.48-19.456 52.224-19.456 72.704 0 21.504 21.504 58.368 21.504 79.872 0 10.24-10.24 16.384-24.576 16.384-39.936s-6.144-28.672-16.384-39.936z" />
<glyph unicode="&#xe924;" glyph-name="bone-frame" d="M138.24 261.632c18.432 0 32.768-14.336 32.768-31.744 0-73.728 59.392-134.144 134.144-134.144 17.408 0 31.744-14.336 31.744-31.744s-14.336-31.744-31.744-31.744c-109.568 0-198.656 88.064-198.656 197.632 0 17.408 14.336 31.744 31.744 31.744zM906.24 261.632c18.432 0 32.768-14.336 32.768-31.744 0-109.568-89.088-197.632-198.656-197.632-17.408 0-31.744 14.336-31.744 31.744s14.336 31.744 31.744 31.744c74.752 0 134.144 60.416 134.144 134.144 0 17.408 14.336 31.744 31.744 31.744zM305.152 800.256c-74.752 0-134.144-60.416-134.144-134.144 0-17.408-14.336-31.744-32.768-31.744-17.408 0-31.744 14.336-31.744 31.744 0 109.568 89.088 197.632 198.656 197.632 17.408 0 31.744-14.336 31.744-31.744s-14.336-31.744-31.744-31.744zM708.608 832c0 17.408 14.336 31.744 31.744 31.744 109.568 0 198.656-88.064 198.656-197.632 0-17.408-14.336-31.744-32.768-31.744-17.408 0-31.744 14.336-31.744 31.744 0 73.728-59.392 134.144-134.144 134.144-17.408 0-31.744 14.336-31.744 31.744zM446.464 336.384c-28.672 0-51.2-23.552-51.2-52.224s22.528-51.2 51.2-51.2c18.432 0 32.768-14.336 32.768-32.768v-136.192c0-17.408-14.336-31.744-32.768-31.744-17.408 0-31.744 14.336-31.744 31.744v108.544c-48.128 14.336-83.968 59.392-83.968 111.616 0 64.512 52.224 115.712 115.712 115.712 29.696 0 56.32-10.24 75.776-27.648 20.48 17.408 47.104 27.648 76.8 27.648 63.488 0 115.712-51.2 115.712-115.712 0-53.248-35.84-97.28-84.992-111.616v-102.4c1.024-2.048 1.024-4.096 1.024-6.144 0-17.408-13.312-30.72-29.696-31.744-1.024 0-2.048 0-3.072 0-17.408 0-31.744 14.336-31.744 31.744v136.192c0 18.432 14.336 32.768 31.744 32.768 0 0 1.024 0 1.024 0 28.672 0 51.2 23.552 51.2 51.2 0 28.672-22.528 52.224-51.2 52.224-21.504 0-38.912-12.288-47.104-30.72-5.12-11.264-16.384-18.432-28.672-18.432-13.312 0-24.576 7.168-29.696 18.432-8.192 18.432-25.6 30.72-47.104 30.72zM601.088 231.936c0 0 0 0 0 0s0 0 0 0v0zM594.944 168.448c0 0 0 0 0 0s0 0 0 0v0zM601.088 32.256c0 0 0 0 0 0s0 0 0 0v0zM602.112 863.744c16.384-2.048 28.672-15.36 28.672-31.744 0-2.048 0-4.096-1.024-6.144v-102.4c49.152-13.312 84.992-58.368 84.992-111.616 0-64.512-52.224-115.712-115.712-115.712-29.696 0-56.32 10.24-76.8 28.672-19.456-18.432-46.080-28.672-75.776-28.672-63.488 0-115.712 51.2-115.712 115.712 0 53.248 35.84 97.28 83.968 111.616v108.544c0 17.408 14.336 31.744 31.744 31.744 18.432 0 32.768-14.336 32.768-31.744v-136.192c0-17.408-14.336-31.744-32.768-31.744-28.672 0-51.2-23.552-51.2-52.224s22.528-52.224 51.2-52.224c21.504 0 38.912 12.288 47.104 30.72 5.12 11.264 16.384 18.432 29.696 18.432 12.288 0 23.552-7.168 28.672-18.432 8.192-18.432 25.6-30.72 47.104-30.72 28.672 0 51.2 23.552 51.2 52.224s-22.528 51.2-51.2 52.224c0 0-1.024 0-1.024 0-17.408 0-31.744 13.312-31.744 31.744v136.192c0 9.216 4.096 18.432 11.264 24.576 6.144 6.144 15.36 8.192 24.576 7.168zM594.944 727.552c0 0 0 0 0 0s0 0 0 0v0zM601.088 664.064c0 0 0 0 0 0s0 0 0 0v0z" />
<glyph unicode="&#xe925;" glyph-name="book" d="M324.608 800.256c-59.392 0-106.496-48.128-106.496-106.496v-349.184c30.72 25.6 69.632 40.96 112.64 40.96h373.76c10.24 0 19.456 9.216 19.456 19.456v374.784c0 11.264-9.216 20.48-19.456 20.48h-379.904zM153.6 208.384v485.376c0 94.208 76.8 169.984 171.008 169.984h379.904c46.080 0 83.968-36.864 83.968-83.968v-374.784c0-46.080-37.888-82.944-83.968-82.944h-373.76c-62.464 0-112.64-51.2-112.64-113.664 0-61.44 50.176-112.64 112.64-112.64h500.736c11.264 0 20.48 9.216 20.48 20.48v540.672c0 17.408 14.336 31.744 31.744 31.744s31.744-14.336 31.744-31.744v-540.672c0-47.104-36.864-83.968-83.968-83.968h-500.736c-97.28 0-177.152 78.848-177.152 176.128zM312.32 208.384c0 17.408 14.336 31.744 32.768 31.744h402.432c18.432 0 32.768-14.336 32.768-31.744s-14.336-31.744-32.768-31.744h-402.432c-18.432 0-32.768 14.336-32.768 31.744z" />
<glyph unicode="&#xe926;" glyph-name="box-arrow-down" d="M168.96 863.744c0 0 1.024 0 2.048 0h684.032c18.432 0 35.84 0 49.152-2.048 15.36-1.024 31.744-6.144 45.056-19.456 12.288-13.312 17.408-29.696 19.456-44.032s2.048-30.72 2.048-49.152v-4.096c0-18.432 0-35.84-2.048-49.152-2.048-15.36-7.168-31.744-19.456-45.056-13.312-12.288-27.648-17.408-43.008-19.456v-228.352c0-78.848 0-140.288-6.144-189.44-6.144-50.176-20.48-90.112-53.248-121.856-31.744-32.768-71.68-46.080-121.856-53.248-49.152-6.144-110.592-6.144-189.44-6.144h-47.104c-78.848 0-140.288 0-189.44 6.144-50.176 7.168-90.112 20.48-121.856 53.248-32.768 31.744-46.080 71.68-53.248 121.856-6.144 49.152-6.144 110.592-6.144 189.44v228.352c-15.36 2.048-29.696 7.168-43.008 19.456-12.288 13.312-17.408 29.696-19.456 45.056-2.048 13.312-2.048 30.72-2.048 49.152 0 0 0 1.024 0 2.048 0 0 0 1.024 0 2.048 0 18.432 0 34.816 2.048 49.152s7.168 30.72 19.456 44.032c13.312 13.312 29.696 18.432 45.056 19.456 13.312 2.048 30.72 2.048 49.152 2.048zM181.248 629.248v-224.256c0-80.896 0-139.264 6.144-182.272s16.384-67.584 34.816-86.016c17.408-18.432 43.008-28.672 86.016-34.816s101.376-6.144 182.272-6.144h43.008c80.896 0 139.264 0 183.296 6.144 43.008 6.144 67.584 16.384 84.992 34.816 18.432 18.432 29.696 43.008 34.816 86.016 6.144 43.008 6.144 101.376 6.144 182.272v224.256h-299.008v-268.288l72.704 79.872c11.264 13.312 31.744 14.336 45.056 3.072 13.312-12.288 14.336-32.768 2.048-46.080l-128-142.336c-6.144-6.144-14.336-10.24-23.552-10.24s-17.408 4.096-23.552 10.24l-128 142.336c-12.288 13.312-11.264 33.792 2.048 46.080 13.312 11.264 33.792 10.24 45.056-3.072l72.704-79.872v268.288h-299.008zM852.992 693.76c21.504 0 33.792 0 43.008 1.024 4.096 0 6.144 1.024 7.168 1.024 0 1.024 0 1.024 0 1.024v0 0c1.024 0 1.024 0 1.024 0 0 1.024 1.024 3.072 1.024 7.168 1.024 9.216 1.024 21.504 1.024 43.008 0 20.48 0 32.768-1.024 41.984 0 4.096-1.024 6.144-1.024 7.168 0 0 0 1.024-1.024 1.024v0 0c0 0 0 0 0 0-1.024 0-3.072 1.024-7.168 2.048-9.216 1.024-21.504 1.024-43.008 1.024h-681.984c-21.504 0-33.792 0-43.008-1.024-4.096-1.024-6.144-2.048-7.168-2.048 0 0 0 0 0 0v0 0c0 0 0-1.024-1.024-1.024 0-1.024-1.024-3.072-1.024-7.168-1.024-9.216-1.024-21.504-1.024-41.984 0-21.504 0-33.792 1.024-43.008 0-4.096 1.024-6.144 1.024-7.168 1.024 0 1.024 0 1.024 0v0 0c0 0 0 0 0-1.024 1.024 0 3.072-1.024 7.168-1.024 9.216-1.024 21.504-1.024 43.008-1.024h681.984z" />
<glyph unicode="&#xe927;" glyph-name="box-arrow-up" d="M168.96 863.744c0 0 1.024 0 2.048 0h684.032c18.432 0 35.84 0 49.152-2.048 15.36-1.024 31.744-6.144 45.056-19.456 12.288-13.312 17.408-29.696 19.456-44.032s2.048-30.72 2.048-49.152v-4.096c0-18.432 0-35.84-2.048-49.152-2.048-15.36-7.168-31.744-19.456-45.056-13.312-12.288-27.648-17.408-43.008-19.456v-228.352c0-78.848 0-140.288-6.144-189.44-6.144-50.176-20.48-90.112-53.248-121.856-31.744-32.768-71.68-46.080-121.856-53.248-49.152-6.144-110.592-6.144-189.44-6.144h-47.104c-78.848 0-140.288 0-189.44 6.144-50.176 7.168-90.112 20.48-121.856 53.248-32.768 31.744-46.080 71.68-53.248 121.856-6.144 49.152-6.144 110.592-6.144 189.44v228.352c-15.36 2.048-29.696 7.168-43.008 19.456-12.288 13.312-17.408 29.696-19.456 45.056-2.048 13.312-2.048 30.72-2.048 49.152 0 0 0 1.024 0 2.048 0 0 0 1.024 0 2.048 0 18.432 0 34.816 2.048 49.152s7.168 30.72 19.456 44.032c13.312 13.312 29.696 18.432 45.056 19.456 13.312 2.048 30.72 2.048 49.152 2.048zM181.248 629.248v-224.256c0-80.896 0-139.264 6.144-182.272s16.384-67.584 34.816-86.016c17.408-18.432 43.008-28.672 86.016-34.816 40.96-5.12 96.256-6.144 172.032-6.144v269.312l-72.704-80.896c-11.264-13.312-31.744-14.336-45.056-2.048-13.312 11.264-14.336 31.744-2.048 45.056l128 142.336c6.144 7.168 14.336 10.24 23.552 10.24s17.408-3.072 23.552-10.24l128-142.336c12.288-13.312 11.264-33.792-2.048-45.056-13.312-12.288-33.792-11.264-45.056 2.048l-72.704 80.896v-269.312c75.776 0 131.072 1.024 173.056 6.144 43.008 6.144 67.584 16.384 84.992 34.816 18.432 18.432 29.696 43.008 34.816 86.016 6.144 43.008 6.144 101.376 6.144 182.272v224.256h-661.504zM120.832 797.184v0c0 0 0-1.024-1.024-1.024 0-1.024-1.024-3.072-1.024-7.168-1.024-9.216-1.024-21.504-1.024-41.984 0-21.504 0-33.792 1.024-43.008 0-4.096 1.024-6.144 1.024-7.168 1.024 0 1.024 0 1.024 0v0 0c0 0 0 0 0-1.024 1.024 0 3.072-1.024 7.168-1.024 9.216-1.024 21.504-1.024 43.008-1.024h681.984c21.504 0 33.792 0 43.008 1.024 4.096 0 6.144 1.024 7.168 1.024 0 1.024 0 1.024 0 1.024v0 0c1.024 0 1.024 0 1.024 0 0 1.024 1.024 3.072 1.024 7.168 1.024 9.216 1.024 21.504 1.024 43.008 0 20.48 0 32.768-1.024 41.984 0 4.096-1.024 6.144-1.024 7.168 0 0 0 1.024-1.024 1.024v0 0c0 0 0 0 0 0-1.024 0-3.072 1.024-7.168 2.048-9.216 1.024-21.504 1.024-43.008 1.024h-681.984c-21.504 0-33.792 0-43.008-1.024-4.096-1.024-6.144-2.048-7.168-2.048 0 0 0 0 0 0v0z" />
<glyph unicode="&#xe928;" glyph-name="calculator" d="M359.424 417.28c21.504 0 38.912-16.384 38.912-37.888v-3.072c0-21.504-17.408-38.912-38.912-38.912s-37.888 17.408-37.888 38.912v3.072c0 21.504 16.384 37.888 37.888 37.888zM533.504 417.28c21.504 0 38.912-16.384 38.912-37.888v-3.072c0-21.504-17.408-38.912-38.912-38.912s-37.888 17.408-37.888 38.912v3.072c0 21.504 16.384 37.888 37.888 37.888zM709.632 417.28c21.504 0 38.912-16.384 38.912-37.888v-3.072c0-21.504-17.408-38.912-38.912-38.912-20.48 0-37.888 17.408-37.888 38.912v3.072c0 21.504 17.408 37.888 37.888 37.888zM359.424 264.704c21.504 0 38.912-17.408 38.912-38.912v-3.072c0-21.504-17.408-38.912-38.912-38.912s-37.888 17.408-37.888 38.912v3.072c0 21.504 16.384 38.912 37.888 38.912zM533.504 264.704c21.504 0 38.912-17.408 38.912-38.912v-3.072c0-21.504-17.408-38.912-38.912-38.912s-37.888 17.408-37.888 38.912v3.072c0 21.504 16.384 38.912 37.888 38.912zM709.632 264.704c21.504 0 38.912-17.408 38.912-38.912v-3.072c0-21.504-17.408-38.912-38.912-38.912-20.48 0-37.888 17.408-37.888 38.912v3.072c0 21.504 17.408 38.912 37.888 38.912zM212.992 797.184c39.936 43.008 97.28 66.56 164.864 66.56h314.368c67.584 0 124.928-23.552 164.864-66.56s60.416-102.4 60.416-168.96v-360.448c0-66.56-20.48-125.952-60.416-168.96s-97.28-66.56-164.864-66.56h-314.368c-67.584 0-124.928 23.552-164.864 66.56s-61.44 102.4-61.44 168.96v360.448c0 66.56 21.504 125.952 61.44 168.96zM259.072 753.152c-26.624-28.672-43.008-71.68-43.008-124.928v-360.448c0-53.248 16.384-96.256 43.008-124.928 27.648-28.672 66.56-47.104 118.784-47.104h314.368c51.2 0 91.136 18.432 117.76 47.104 27.648 28.672 44.032 71.68 44.032 124.928v360.448c0 53.248-16.384 96.256-44.032 124.928-26.624 28.672-66.56 47.104-117.76 47.104h-314.368c-52.224 0-91.136-18.432-118.784-47.104zM324.608 692.736c19.456 18.432 46.080 26.624 72.704 26.624h274.432c27.648 0 54.272-8.192 73.728-26.624 19.456-19.456 28.672-45.056 27.648-73.728 0 0 0 0 0 0v0-13.312c0-28.672-8.192-55.296-27.648-73.728-19.456-19.456-46.080-26.624-73.728-26.624h-274.432c-27.648 0-53.248 8.192-72.704 26.624-19.456 19.456-28.672 46.080-28.672 74.752v12.288c0 28.672 9.216 54.272 28.672 73.728zM368.64 646.656c-4.096-4.096-8.192-12.288-8.192-27.648v-12.288c0-16.384 4.096-24.576 8.192-28.672 5.12-4.096 13.312-9.216 28.672-9.216h274.432c16.384 0 24.576 5.12 28.672 9.216 5.12 4.096 9.216 12.288 9.216 27.648v13.312c0 15.36-4.096 23.552-9.216 27.648-4.096 4.096-12.288 8.192-28.672 8.192h-274.432c-15.36 0-23.552-4.096-28.672-8.192z" />
<glyph unicode="&#xe929;" glyph-name="calendar" d="M924.672 775.68c-36.864 36.864-83.968 52.224-148.48 59.392v18.432c0 27.648-22.528 51.2-51.2 51.2s-51.2-23.552-51.2-51.2v-13.312c-23.552 0-48.128 0-76.8 0h-169.984c-27.648 0-53.248 0-76.8 0v13.312c0 27.648-23.552 51.2-51.2 51.2s-51.2-23.552-51.2-51.2v-18.432c-64.512-7.168-111.616-22.528-148.48-59.392-65.536-65.536-65.536-158.72-65.536-327.68v-84.992c0-169.984 0-263.168 65.536-327.68 64.512-65.536 157.696-65.536 327.68-65.536h169.984c169.984 0 263.168 0 327.68 65.536s65.536 157.696 65.536 327.68v84.992c0 168.96 0 262.144-65.536 327.68zM427.008 737.792h169.984c156.672 0 222.208-1.024 256-34.816 15.36-15.36 24.576-38.912 28.672-75.776h-739.328c5.12 36.864 13.312 60.416 29.696 75.776 32.768 33.792 98.304 34.816 254.976 34.816zM887.808 363.008c0-156.672-2.048-222.208-34.816-254.976-33.792-33.792-99.328-35.84-256-35.84h-169.984c-156.672 0-222.208 2.048-254.976 35.84-33.792 32.768-35.84 98.304-35.84 254.976v84.992c0 28.672 0 54.272 1.024 76.8h749.568c1.024-22.528 1.024-48.128 1.024-76.8v-84.992z" />
<glyph unicode="&#xe92a;" glyph-name="calendar-clock" d="M640 410.112c16.384 0 30.72-13.312 30.72-30.72v-63.488l32.768-37.888c11.264-12.288 9.216-31.744-3.072-43.008-12.288-10.24-31.744-9.216-43.008 3.072l-39.936 47.104c-5.12 5.12-8.192 12.288-8.192 19.456v74.752c0 17.408 14.336 30.72 30.72 30.72zM448.512 298.496c0 106.496 84.992 192.512 191.488 192.512s192.512-86.016 192.512-192.512c0-105.472-86.016-191.488-192.512-191.488s-191.488 86.016-191.488 191.488zM640 430.592c-72.704 0-131.072-59.392-131.072-132.096s58.368-131.072 131.072-131.072c72.704 0 131.072 58.368 131.072 131.072s-58.368 132.096-131.072 132.096zM299.008 887.296c18.432 0 33.792-15.36 33.792-33.792v-30.72c27.648 1.024 58.368 1.024 91.136 1.024h176.128c32.768 0 63.488 0 91.136-1.024v30.72c0 18.432 15.36 33.792 33.792 33.792 19.456 0 34.816-15.36 34.816-33.792v-33.792c10.24 0 20.48-1.024 29.696-3.072 50.176-6.144 91.136-20.48 122.88-53.248 32.768-31.744 47.104-73.728 54.272-123.904 6.144-48.128 6.144-110.592 6.144-188.416v-91.136c0-77.824 0-140.288-6.144-189.44-7.168-50.176-21.504-91.136-54.272-122.88-31.744-32.768-72.704-47.104-122.88-54.272-49.152-6.144-111.616-6.144-189.44-6.144h-176.128c-77.824 0-140.288 0-189.44 6.144-50.176 7.168-91.136 21.504-122.88 54.272-32.768 31.744-47.104 72.704-54.272 122.88-6.144 49.152-6.144 111.616-6.144 189.44v91.136c0 77.824 0 140.288 6.144 188.416 7.168 50.176 21.504 92.16 54.272 123.904 31.744 32.768 72.704 47.104 122.88 53.248 10.24 2.048 19.456 3.072 29.696 3.072v33.792c0 18.432 15.36 33.792 34.816 33.792zM243.712 749.056c-41.984-5.12-66.56-16.384-83.968-33.792s-28.672-41.984-33.792-84.992c-1.024-6.144-2.048-13.312-3.072-20.48h778.24c-1.024 7.168-2.048 14.336-2.048 20.48-6.144 43.008-16.384 67.584-34.816 84.992-17.408 17.408-40.96 28.672-83.968 33.792-44.032 6.144-101.376 6.144-183.296 6.144h-169.984c-81.92 0-139.264 0-183.296-6.144zM119.808 542.208c0-27.648 0-58.368 0-94.208v-84.992c0-81.92 0-139.264 6.144-183.296 5.12-41.984 16.384-66.56 33.792-83.968 17.408-18.432 41.984-28.672 83.968-34.816 44.032-5.12 101.376-5.12 183.296-5.12h169.984c81.92 0 139.264 0 183.296 5.12 43.008 6.144 66.56 16.384 83.968 34.816 18.432 17.408 28.672 41.984 34.816 83.968 5.12 44.032 5.12 101.376 5.12 183.296v84.992c0 35.84 0 66.56 0 94.208h-784.384z" />
<glyph unicode="&#xe92b;" glyph-name="calendar-dates" d="M924.672 775.68c-36.864 36.864-83.968 52.224-148.48 59.392v18.432c0 27.648-22.528 51.2-51.2 51.2s-51.2-23.552-51.2-51.2v-13.312c-23.552 0-48.128 0-76.8 0h-169.984c-27.648 0-53.248 0-76.8 0v13.312c0 27.648-23.552 51.2-51.2 51.2s-51.2-23.552-51.2-51.2v-18.432c-64.512-7.168-111.616-22.528-148.48-59.392-65.536-65.536-65.536-158.72-65.536-327.68v-84.992c0-169.984 0-263.168 65.536-327.68 64.512-65.536 157.696-65.536 327.68-65.536h169.984c169.984 0 263.168 0 327.68 65.536s65.536 157.696 65.536 327.68v84.992c0 168.96 0 262.144-65.536 327.68zM172.032 702.976c32.768 33.792 98.304 34.816 254.976 34.816h169.984c156.672 0 222.208-1.024 256-34.816 15.36-15.36 24.576-38.912 28.672-75.776h-739.328c5.12 36.864 13.312 60.416 29.696 75.776zM887.808 363.008c0-156.672-2.048-222.208-34.816-254.976-33.792-33.792-99.328-35.84-256-35.84h-169.984c-156.672 0-222.208 2.048-254.976 35.84-33.792 32.768-35.84 98.304-35.84 254.976v84.992c0 28.672 0 54.272 1.024 76.8h749.568c1.024-22.528 1.024-48.128 1.024-76.8v-84.992zM724.992 276.992c-23.552 0-41.984-18.432-41.984-41.984s18.432-43.008 41.984-43.008c23.552 0 43.008 19.456 43.008 43.008s-19.456 41.984-43.008 41.984zM724.992 448c-23.552 0-41.984-19.456-41.984-43.008s18.432-41.984 41.984-41.984c23.552 0 43.008 18.432 43.008 41.984s-19.456 43.008-43.008 43.008zM512 276.992c-23.552 0-43.008-18.432-43.008-41.984s19.456-43.008 43.008-43.008c23.552 0 43.008 19.456 43.008 43.008s-19.456 41.984-43.008 41.984zM512 448c-23.552 0-43.008-19.456-43.008-43.008s19.456-41.984 43.008-41.984c23.552 0 43.008 18.432 43.008 41.984s-19.456 43.008-43.008 43.008zM299.008 276.992c-23.552 0-43.008-18.432-43.008-41.984s19.456-43.008 43.008-43.008c23.552 0 41.984 19.456 41.984 43.008s-18.432 41.984-41.984 41.984zM299.008 448c-23.552 0-43.008-19.456-43.008-43.008s19.456-41.984 43.008-41.984c23.552 0 41.984 18.432 41.984 41.984s-18.432 43.008-41.984 43.008z" />
<glyph unicode="&#xe92c;" glyph-name="calendar-mark" d="M924.672 775.68c-36.864 36.864-83.968 52.224-148.48 59.392v18.432c0 27.648-22.528 51.2-51.2 51.2s-51.2-23.552-51.2-51.2v-13.312c-23.552 0-48.128 0-76.8 0h-169.984c-27.648 0-53.248 0-76.8 0v13.312c0 27.648-23.552 51.2-51.2 51.2s-51.2-23.552-51.2-51.2v-18.432c-64.512-7.168-111.616-22.528-148.48-59.392-65.536-65.536-65.536-158.72-65.536-327.68v-84.992c0-169.984 0-263.168 65.536-327.68 64.512-65.536 157.696-65.536 327.68-65.536h169.984c169.984 0 263.168 0 327.68 65.536s65.536 157.696 65.536 327.68v84.992c0 168.96 0 262.144-65.536 327.68zM427.008 737.792h169.984c156.672 0 222.208-1.024 256-34.816 15.36-15.36 24.576-38.912 28.672-75.776h-739.328c5.12 36.864 13.312 60.416 29.696 75.776 32.768 33.792 98.304 34.816 254.976 34.816zM887.808 363.008c0-156.672-2.048-222.208-34.816-254.976-33.792-33.792-99.328-35.84-256-35.84h-169.984c-156.672 0-222.208 2.048-254.976 35.84-33.792 32.768-35.84 98.304-35.84 254.976v84.992c0 28.672 0 54.272 1.024 76.8h749.568c1.024-22.528 1.024-48.128 1.024-76.8v-84.992zM648.192 483.84c-95.232 0-172.032-76.8-172.032-171.008 0-95.232 76.8-172.032 172.032-172.032s171.008 76.8 171.008 172.032c0 94.208-76.8 171.008-171.008 171.008zM648.192 243.2c-38.912 0-69.632 30.72-69.632 69.632 0 37.888 30.72 68.608 69.632 68.608s68.608-30.72 68.608-68.608c0-38.912-30.72-69.632-68.608-69.632z" />
<glyph unicode="&#xe92d;" glyph-name="calendar-plus" d="M924.672 775.68c-36.864 36.864-83.968 52.224-148.48 59.392v18.432c0 27.648-22.528 51.2-51.2 51.2s-51.2-23.552-51.2-51.2v-13.312c-23.552 0-48.128 0-76.8 0h-169.984c-27.648 0-53.248 0-76.8 0v13.312c0 27.648-23.552 51.2-51.2 51.2s-51.2-23.552-51.2-51.2v-18.432c-64.512-7.168-111.616-22.528-148.48-59.392-65.536-65.536-65.536-158.72-65.536-327.68v-84.992c0-169.984 0-263.168 65.536-327.68 64.512-65.536 157.696-65.536 327.68-65.536h169.984c169.984 0 263.168 0 327.68 65.536s65.536 157.696 65.536 327.68v84.992c0 168.96 0 262.144-65.536 327.68zM427.008 737.792h169.984c156.672 0 222.208-1.024 256-34.816 15.36-15.36 24.576-38.912 28.672-75.776h-739.328c5.12 36.864 13.312 60.416 29.696 75.776 32.768 33.792 98.304 34.816 254.976 34.816zM887.808 363.008c0-156.672-2.048-222.208-34.816-254.976-33.792-33.792-99.328-35.84-256-35.84h-169.984c-156.672 0-222.208 2.048-254.976 35.84-33.792 32.768-35.84 98.304-35.84 254.976v84.992c0 28.672 0 54.272 1.024 76.8h749.568c1.024-22.528 1.024-48.128 1.024-76.8v-84.992zM779.264 353.792h-76.8v76.8c0 27.648-23.552 51.2-51.2 51.2s-51.2-23.552-51.2-51.2v-76.8h-76.8c-28.672 0-51.2-23.552-51.2-51.2s22.528-51.2 51.2-51.2h76.8v-76.8c0-28.672 22.528-51.2 51.2-51.2s51.2 22.528 51.2 51.2v76.8h76.8c27.648 0 51.2 22.528 51.2 51.2s-23.552 51.2-51.2 51.2z" />
<glyph unicode="&#xe92e;" glyph-name="calendar-search" d="M924.672 775.68c-36.864 36.864-83.968 52.224-148.48 59.392v18.432c0 27.648-22.528 51.2-51.2 51.2s-51.2-23.552-51.2-51.2v-13.312c-23.552 0-48.128 0-76.8 0h-169.984c-27.648 0-53.248 0-76.8 0v13.312c0 27.648-23.552 51.2-51.2 51.2s-51.2-23.552-51.2-51.2v-18.432c-64.512-7.168-111.616-22.528-148.48-59.392-65.536-65.536-65.536-158.72-65.536-327.68v-84.992c0-169.984 0-263.168 65.536-327.68 64.512-65.536 157.696-65.536 327.68-65.536h53.248c27.648 0 51.2 23.552 51.2 51.2s-23.552 51.2-51.2 51.2h-53.248c-156.672 0-222.208 2.048-254.976 35.84-33.792 32.768-35.84 98.304-35.84 254.976v84.992c0 28.672 0 54.272 1.024 76.8h749.568c1.024-22.528 1.024-48.128 1.024-76.8v-31.744c0-28.672 22.528-51.2 51.2-51.2s51.2 22.528 51.2 51.2v31.744c0 168.96 0 262.144-65.536 327.68zM142.336 627.2c5.12 36.864 13.312 60.416 29.696 75.776 32.768 33.792 98.304 34.816 254.976 34.816h169.984c156.672 0 222.208-1.024 256-34.816 15.36-15.36 24.576-38.912 28.672-75.776h-739.328zM852.992 160.256c18.432 31.744 30.72 68.608 30.72 107.52 0 116.736-95.232 211.968-211.968 211.968-115.712 0-210.944-95.232-210.944-211.968s95.232-210.944 210.944-210.944c39.936 0 76.8 12.288 108.544 30.72l79.872-79.872c9.216-9.216 22.528-14.336 35.84-14.336s26.624 5.12 35.84 14.336c20.48 20.48 20.48 52.224 0 72.704l-78.848 79.872zM671.744 159.232c-59.392 0-108.544 49.152-108.544 108.544s49.152 109.568 108.544 109.568 109.568-49.152 109.568-109.568-49.152-108.544-109.568-108.544z" />
<glyph unicode="&#xe92f;" glyph-name="camera" d="M439.296 751.104c-22.528 0-44.032-12.288-55.296-31.744-5.12-11.264-12.288-21.504-17.408-31.744-6.144-9.216-12.288-18.432-18.432-25.6v0c-20.48-21.504-48.128-33.792-77.824-34.816 0 0-1.024 0-1.024 0-54.272 0-98.304-44.032-98.304-98.304v-240.64c0-79.872 63.488-143.36 143.36-143.36h416.768c79.872 0 143.36 63.488 143.36 143.36v240.64c0 54.272-44.032 98.304-98.304 98.304 0 0-1.024 0-1.024 0-29.696 1.024-57.344 13.312-77.824 34.816v1.024c-6.144 6.144-12.288 15.36-17.408 24.576-6.144 9.216-12.288 20.48-17.408 30.72-11.264 20.48-32.768 32.768-56.32 32.768h-166.912zM328.704 750.080c21.504 39.936 64.512 65.536 110.592 65.536h166.912c47.104 0 90.112-25.6 112.64-67.584 5.12-9.216 10.24-19.456 15.36-27.648s8.192-12.288 10.24-14.336c8.192-9.216 20.48-14.336 32.768-14.336 89.088-1.024 161.792-73.728 161.792-162.816v-240.64c0-114.688-93.184-207.872-207.872-207.872h-416.768c-114.688 0-207.872 93.184-207.872 207.872v240.64c0 89.088 72.704 161.792 161.792 161.792 12.288 1.024 24.576 6.144 32.768 15.36 2.048 2.048 5.12 7.168 11.264 15.36 5.12 8.192 10.24 18.432 16.384 28.672zM743.424 572.928c17.408 0 31.744-14.336 31.744-31.744v-3.072c0-17.408-14.336-31.744-31.744-31.744s-31.744 14.336-31.744 31.744v3.072c0 17.408 14.336 31.744 31.744 31.744zM358.4 400.896c0 90.112 73.728 163.84 163.84 163.84 91.136 0 164.864-73.728 164.864-163.84s-73.728-163.84-164.864-163.84c-90.112 0-163.84 73.728-163.84 163.84zM522.24 501.248c-54.272 0-99.328-45.056-99.328-100.352s45.056-100.352 99.328-100.352c55.296 0 100.352 45.056 100.352 100.352s-45.056 100.352-100.352 100.352z" />
<glyph unicode="&#xe930;" glyph-name="camera-flip" d="M381.952 471.552c26.624 51.2 79.872 87.040 141.312 87.040 87.040 0 157.696-70.656 157.696-157.696s-70.656-157.696-157.696-157.696c-57.344 0-107.52 30.72-135.168 75.776-9.216 15.36-4.096 34.816 11.264 44.032 14.336 9.216 34.816 5.12 44.032-10.24 16.384-27.648 46.080-45.056 79.872-45.056 51.2 0 93.184 41.984 93.184 93.184s-41.984 93.184-93.184 93.184c-36.864 0-68.608-20.48-83.968-51.2-8.192-15.36-26.624-22.528-43.008-14.336-15.36 8.192-21.504 27.648-14.336 43.008zM410.624 558.592c18.432 0 32.768-14.336 32.768-31.744v-37.888h36.864c17.408 0 31.744-14.336 31.744-31.744s-14.336-31.744-31.744-31.744h-69.632c-17.408 0-31.744 14.336-31.744 31.744v69.632c0 17.408 14.336 31.744 31.744 31.744zM439.296 751.104c-22.528 0-44.032-12.288-55.296-31.744-5.12-11.264-12.288-21.504-17.408-31.744-6.144-9.216-12.288-18.432-18.432-25.6v0c-20.48-21.504-48.128-33.792-77.824-34.816 0 0-1.024 0-1.024 0-54.272 0-98.304-44.032-98.304-98.304v-240.64c0-79.872 63.488-143.36 143.36-143.36h416.768c79.872 0 143.36 63.488 143.36 143.36v240.64c0 54.272-44.032 98.304-98.304 98.304 0 0-1.024 0-1.024 0-29.696 1.024-57.344 13.312-77.824 34.816v1.024c-6.144 6.144-12.288 15.36-17.408 24.576-6.144 9.216-12.288 20.48-17.408 30.72-11.264 20.48-32.768 32.768-56.32 32.768h-166.912zM328.704 750.080c21.504 39.936 64.512 65.536 110.592 65.536h166.912c47.104 0 90.112-25.6 112.64-67.584 5.12-9.216 10.24-19.456 15.36-27.648s8.192-12.288 10.24-14.336c8.192-9.216 20.48-14.336 32.768-14.336 89.088-1.024 161.792-73.728 161.792-162.816v-240.64c0-114.688-93.184-207.872-207.872-207.872h-416.768c-114.688 0-207.872 93.184-207.872 207.872v240.64c0 89.088 72.704 161.792 161.792 161.792 12.288 1.024 24.576 6.144 32.768 15.36 2.048 2.048 5.12 7.168 11.264 15.36 5.12 8.192 10.24 18.432 16.384 28.672z" />
<glyph unicode="&#xe931;" glyph-name="camera-plus" d="M689.152 654.848c0 17.408 14.336 31.744 31.744 31.744h180.224c18.432 0 32.768-14.336 32.768-31.744s-14.336-31.744-32.768-31.744h-180.224c-17.408 0-31.744 14.336-31.744 31.744zM811.008 777.728c18.432 0 32.768-14.336 32.768-32.768v-180.224c0-17.408-14.336-31.744-32.768-31.744-17.408 0-31.744 14.336-31.744 31.744v180.224c0 18.432 14.336 32.768 31.744 32.768zM439.296 751.104c-22.528 0-44.032-12.288-55.296-31.744-5.12-11.264-11.264-21.504-17.408-31.744-6.144-9.216-12.288-18.432-18.432-25.6 0 0 0 0 0 0-20.48-21.504-48.128-33.792-77.824-34.816 0 0-1.024 0-1.024 0-54.272 0-98.304-44.032-98.304-98.304v-240.64c0-79.872 63.488-143.36 143.36-143.36h416.768c79.872 0 143.36 63.488 143.36 143.36v157.696c0 17.408 14.336 31.744 31.744 31.744 18.432 0 32.768-14.336 32.768-31.744v-157.696c0-114.688-93.184-207.872-207.872-207.872h-416.768c-114.688 0-207.872 93.184-207.872 207.872v240.64c0 89.088 72.704 161.792 161.792 161.792 12.288 1.024 24.576 6.144 32.768 15.36 2.048 2.048 5.12 7.168 11.264 15.36 5.12 8.192 10.24 18.432 16.384 28.672v0c21.504 39.936 64.512 65.536 110.592 65.536h166.912c18.432 0 32.768-14.336 32.768-31.744 0-18.432-14.336-32.768-32.768-32.768h-166.912zM358.4 400.896c0 90.112 73.728 163.84 164.864 163.84 90.112 0 163.84-73.728 163.84-163.84s-73.728-163.84-163.84-163.84c-91.136 0-164.864 73.728-164.864 163.84zM523.264 501.248c-55.296 0-100.352-45.056-100.352-100.352s45.056-100.352 100.352-100.352c54.272 0 99.328 45.056 99.328 100.352s-45.056 100.352-99.328 100.352z" />
<glyph unicode="&#xe932;" glyph-name="camera-slashed" d="M842.752 820.736c13.312-12.288 13.312-31.744 1.024-45.056l-665.6-704.512c-12.288-13.312-32.768-13.312-45.056-1.024-13.312 12.288-13.312 31.744-1.024 45.056l665.6 704.512c12.288 13.312 32.768 13.312 45.056 1.024zM836.608 667.136c11.264 13.312 31.744 15.36 45.056 4.096 34.816-29.696 57.344-73.728 57.344-122.88v-240.64c0-114.688-93.184-207.872-207.872-207.872h-356.352c-18.432 0-32.768 14.336-32.768 31.744 0 18.432 14.336 32.768 32.768 32.768h356.352c79.872 0 143.36 63.488 143.36 143.36v240.64c0 29.696-13.312 56.32-33.792 73.728-13.312 11.264-15.36 31.744-4.096 45.056zM384 737.792c-11.264-19.456-24.576-44.032-34.816-55.296-1.024-1.024-1.024-1.024-1.024-1.024-20.48-21.504-48.128-33.792-77.824-34.816 0 0 0 0-1.024 0-54.272 0-98.304-45.056-98.304-99.328v-240.64c0-50.176 25.6-94.208 64.512-119.808 15.36-9.216 19.456-28.672 10.24-44.032-10.24-14.336-29.696-18.432-45.056-9.216-56.32 36.864-94.208 100.352-94.208 173.056v240.64c0 90.112 72.704 162.816 161.792 162.816 12.288 1.024 24.576 6.144 32.768 14.336 5.12 6.144 16.384 24.576 27.648 44.032v0 0c22.528 40.96 64.512 66.56 110.592 66.56h166.912c48.128 0 90.112-26.624 112.64-67.584 5.12-10.24 10.24-19.456 15.36-27.648s8.192-13.312 10.24-15.36c14.336-9.216 18.432-27.648 9.216-43.008s-28.672-19.456-44.032-11.264c-4.096 3.072-9.216 7.168-13.312 12.288-6.144 6.144-11.264 15.36-16.384 24.576-6.144 9.216-12.288 19.456-17.408 29.696v0 0c-11.264 21.504-32.768 33.792-56.32 33.792h-166.912c-22.528 0-44.032-12.288-55.296-32.768zM522.24 519.68c-55.296 0-99.328-45.056-99.328-99.328 0-17.408 4.096-32.768 11.264-47.104 8.192-15.36 2.048-34.816-13.312-43.008-16.384-8.192-35.84-2.048-44.032 13.312-11.264 22.528-18.432 49.152-18.432 76.8 0 90.112 73.728 163.84 163.84 163.84 24.576 0 47.104-5.12 68.608-15.36 16.384-7.168 22.528-26.624 15.36-43.008-8.192-15.36-26.624-22.528-43.008-14.336-12.288 5.12-25.6 8.192-40.96 8.192zM654.336 452.096c18.432 0 32.768-14.336 32.768-31.744 0-91.136-73.728-163.84-164.864-163.84-17.408 0-31.744 14.336-31.744 31.744s14.336 31.744 31.744 31.744c55.296 0 100.352 45.056 100.352 100.352 0 17.408 14.336 31.744 31.744 31.744z" />
<glyph unicode="&#xe933;" glyph-name="card" d="M429.056 294.4h-173.056c-19.456 0-37.888-19.456-37.888-37.888s18.432-38.912 37.888-38.912h173.056c19.456 0 37.888 19.456 37.888 38.912s-18.432 37.888-37.888 37.888zM256 345.6h82.944c19.456 0 38.912 19.456 38.912 38.912 0 18.432-19.456 37.888-38.912 37.888h-82.944c-19.456 0-37.888-19.456-37.888-37.888 0-19.456 18.432-38.912 37.888-38.912zM992.256 530.944c0 0 0 7.168 0 0 0 115.712-13.312 192.512-64.512 243.712-63.488 63.488-159.744 63.488-325.632 63.488h-173.056c-166.912 0-262.144 0-326.656-63.488-51.2-51.2-63.488-121.856-63.488-236.544 0 0 0 0 0 0s0 0 0 0c0-25.6 0-51.2 0-83.968 0-165.888 0-262.144 63.488-325.632s159.744-64.512 326.656-64.512h173.056c165.888 0 262.144 0 325.632 64.512s64.512 159.744 64.512 325.632c0 25.6 0 51.2 0 76.8 0 0 0 0 0 0zM429.056 735.744h173.056c153.6 0 223.232 0 256-31.744 18.432-19.456 31.744-57.344 31.744-121.856h-748.544c6.144 64.512 12.288 96.256 31.744 121.856 31.744 31.744 96.256 31.744 256 31.744zM850.944 192c-31.744-31.744-95.232-31.744-256-31.744h-165.888c-153.6 0-224.256 0-256 31.744s-31.744 96.256-31.744 256c0 13.312 0 25.6 0 31.744h748.544c0-12.288 0-18.432 0-31.744 0-153.6-6.144-224.256-38.912-256zM685.056 441.856c-45.056 0-76.8 0-102.4-25.6-25.6-19.456-25.6-51.2-25.6-96.256s0-76.8 25.6-102.4c25.6-25.6 51.2-25.6 102.4-25.6 45.056 0 76.8 0 102.4 25.6s25.6 51.2 25.6 102.4c0 45.056 0 76.8-25.6 102.4-25.6 19.456-57.344 19.456-102.4 19.456zM640 274.944c0 7.168 0 25.6 0 45.056s0 45.056 0 45.056c13.312 6.144 90.112 0 90.112 0 0-6.144 0-25.6 0-45.056s0-45.056 0-45.056c-13.312-6.144-83.968 0-90.112 0z" />
<glyph unicode="&#xe934;" glyph-name="card-credit" d="M427.008 328.192h-171.008c-28.672 0-51.2-22.528-51.2-51.2s22.528-51.2 51.2-51.2h171.008c27.648 0 51.2 23.552 51.2 51.2s-23.552 51.2-51.2 51.2zM661.504 328.192h-64.512c-27.648 0-51.2-22.528-51.2-51.2s23.552-51.2 51.2-51.2h64.512c27.648 0 51.2 23.552 51.2 51.2s-23.552 51.2-51.2 51.2zM989.184 536.064c0 11.264 0 22.528-1.024 32.768 1.024 3.072 2.048 5.12 2.048 7.168 0 4.096-2.048 8.192-3.072 11.264-4.096 86.016-18.432 144.384-62.464 188.416-64.512 64.512-157.696 64.512-327.68 64.512h-169.984c-169.984 0-263.168 0-327.68-64.512-44.032-44.032-58.368-102.4-62.464-188.416-1.024-3.072-3.072-7.168-3.072-11.264 0-2.048 1.024-4.096 2.048-7.168-1.024-10.24-1.024-21.504-1.024-32.768 0-1.024-1.024-2.048-1.024-3.072 0 0 1.024-1.024 1.024-2.048 0-25.6-1.024-52.224-1.024-82.944 0-168.96 0-262.144 65.536-327.68 64.512-64.512 157.696-64.512 327.68-64.512h169.984c169.984 0 263.168 0 327.68 64.512s65.536 158.72 65.536 327.68c0 30.72 0 57.344-1.024 82.944 0 1.024 1.024 2.048 1.024 2.048 0 1.024-1.024 2.048-1.024 3.072zM427.008 737.792h169.984c156.672 0 222.208-1.024 256-34.816 15.36-15.36 24.576-38.912 28.672-75.776h-739.328c5.12 36.864 13.312 60.416 29.696 75.776 32.768 33.792 98.304 34.816 254.976 34.816zM852.992 193.024c-33.792-33.792-99.328-34.816-256-34.816h-169.984c-156.672 0-222.208 1.024-254.976 34.816-33.792 33.792-35.84 98.304-35.84 254.976 0 12.288 0 22.528 0 33.792h751.616c0-11.264 0-21.504 0-33.792 0-156.672-2.048-221.184-34.816-254.976z" />
<glyph unicode="&#xe935;" glyph-name="card-euro-check" d="M927.744 774.656c-63.488 63.488-159.744 63.488-325.632 63.488h-173.056c-166.912 0-262.144 0-326.656-63.488-63.488-64.512-63.488-159.744-63.488-326.656s0-262.144 63.488-326.656 159.744-63.488 326.656-63.488h173.056c165.888 0 262.144 0 325.632 63.488s64.512 160.768 64.512 326.656 0 262.144-64.512 326.656zM850.944 192c-31.744-31.744-95.232-31.744-256-31.744h-165.888c-153.6 0-224.256 0-256 31.744s-31.744 96.256-31.744 256 0 224.256 31.744 256 96.256 31.744 256 31.744h173.056c153.6 0 223.232 0 256-31.744 31.744-31.744 31.744-96.256 31.744-256s-6.144-224.256-38.912-256zM768 486.912h-147.456c-25.6 0-37.888-19.456-37.888-38.912s19.456-37.888 37.888-37.888h147.456c19.456 0 38.912 18.432 38.912 37.888s-19.456 38.912-38.912 38.912zM722.944 358.912h-102.4c-18.432 0-37.888-19.456-37.888-38.912s19.456-37.888 37.888-37.888h109.568c18.432 0 37.888 18.432 37.888 37.888s-19.456 38.912-45.056 38.912zM768 614.912h-147.456c-25.6 0-37.888-19.456-37.888-38.912s19.456-37.888 37.888-37.888h147.456c19.456 0 38.912 18.432 38.912 37.888s-19.456 38.912-38.912 38.912zM448.512 524.8c18.432-12.288 44.032-6.144 51.2 13.312 12.288 18.432 6.144 44.032-7.168 51.2-25.6 18.432-51.2 25.6-82.944 25.6-57.344 0-108.544-32.768-134.144-83.968h-19.456c-19.456 0-37.888-18.432-37.888-37.888s18.432-38.912 37.888-38.912h6.144c0 0 0 0 0-6.144 0 0 0 0 0-6.144h-6.144c-19.456 0-37.888-19.456-37.888-38.912s18.432-37.888 37.888-37.888h25.6c25.6-51.2 76.8-82.944 134.144-82.944 25.6 0 51.2 6.144 76.8 25.6 13.312 6.144 19.456 31.744 7.168 51.2-7.168 18.432-32.768 25.6-51.2 12.288-13.312-6.144-25.6-12.288-38.912-12.288-12.288 0-19.456 6.144-31.744 6.144h6.144c19.456 0 38.912 19.456 38.912 37.888s-19.456 38.912-38.912 38.912h-45.056c0 0 0 0 0 6.144 0 0 0 0 0 6.144h45.056c19.456 0 38.912 19.456 38.912 38.912s-19.456 37.888-38.912 37.888v0c13.312 7.168 19.456 7.168 31.744 7.168 7.168 0 19.456-7.168 32.768-13.312z" />
<glyph unicode="&#xe936;" glyph-name="card-mastercard" d="M424.96 448c0 37.888 13.312 73.728 34.816 101.376-10.24 4.096-21.504 6.144-32.768 6.144-59.392 0-107.52-48.128-107.52-107.52s48.128-107.52 107.52-107.52c11.264 0 22.528 2.048 32.768 5.12-21.504 28.672-34.816 63.488-34.816 102.4zM489.472 448c0-24.576 8.192-47.104 22.528-65.536 14.336 18.432 22.528 40.96 22.528 65.536s-8.192 47.104-22.528 65.536c-14.336-18.432-22.528-40.96-22.528-65.536zM596.992 555.52c-11.264 0-22.528-2.048-32.768-5.12 21.504-28.672 34.816-64.512 34.816-102.4s-13.312-73.728-34.816-102.4c10.24-3.072 21.504-5.12 32.768-5.12 59.392 0 107.52 48.128 107.52 107.52s-48.128 107.52-107.52 107.52zM596.992 275.968c-30.72 0-59.392 9.216-84.992 23.552-25.6-14.336-54.272-23.552-84.992-23.552-94.208 0-172.032 76.8-172.032 172.032 0 94.208 77.824 172.032 172.032 172.032 30.72 0 59.392-9.216 84.992-23.552 25.6 14.336 54.272 23.552 84.992 23.552 95.232 0 172.032-77.824 172.032-172.032 0-95.232-76.8-172.032-172.032-172.032zM750.592 822.784h-477.184c-124.928 0-208.896-88.064-208.896-218.112v-312.32c0-131.072 83.968-219.136 208.896-219.136h477.184c124.928 0 209.92 88.064 209.92 219.136v312.32c0 130.048-84.992 218.112-209.92 218.112z" />
<glyph unicode="&#xe937;" glyph-name="card-visa" d="M796.672 333.312c-3.072-1.024-6.144-1.024-9.216-1.024-13.312 0-26.624 8.192-30.72 22.528l-24.576 83.968-37.888-88.064c-7.168-15.36-25.6-23.552-41.984-16.384s-23.552 26.624-16.384 41.984l72.704 168.96c5.12 12.288 17.408 20.48 31.744 18.432 13.312 0 24.576-9.216 28.672-22.528l49.152-167.936c5.12-17.408-4.096-34.816-21.504-39.936zM589.824 489.984c-12.288 5.12-26.624 4.096-29.696 2.048 1.024-5.12 4.096-8.192 18.432-18.432 8.192-6.144 16.384-13.312 23.552-20.48 13.312-14.336 19.456-30.72 20.48-47.104 1.024-18.432-7.168-37.888-21.504-51.2-13.312-12.288-31.744-18.432-52.224-18.432-13.312 0-27.648 2.048-43.008 8.192-16.384 7.168-24.576 25.6-18.432 41.984 7.168 16.384 25.6 24.576 41.984 17.408 14.336-5.12 24.576-5.12 28.672-2.048 0 3.072 0 5.12-4.096 9.216-3.072 3.072-8.192 7.168-13.312 10.24-18.432 13.312-45.056 33.792-43.008 72.704 1.024 21.504 11.264 39.936 27.648 51.2 27.648 17.408 64.512 13.312 88.064 4.096 16.384-6.144 24.576-24.576 18.432-40.96s-25.6-24.576-41.984-18.432zM448.512 358.912c-2.048-15.36-15.36-26.624-31.744-26.624-1.024 0-3.072 0-4.096 0-17.408 2.048-29.696 18.432-27.648 35.84l24.576 168.96c2.048 17.408 18.432 29.696 35.84 26.624 17.408-2.048 29.696-18.432 27.648-35.84l-24.576-168.96zM307.2 350.72c-5.12-11.264-16.384-18.432-28.672-18.432-1.024 0-2.048 0-3.072 0-13.312 1.024-25.6 10.24-28.672 23.552l-41.984 168.96c-4.096 16.384 6.144 33.792 23.552 37.888 17.408 5.12 34.816-6.144 38.912-22.528l19.456-78.848 37.888 83.968c7.168 16.384 26.624 23.552 43.008 16.384 15.36-7.168 22.528-26.624 15.36-43.008l-75.776-167.936zM750.592 822.784h-477.184c-124.928 0-208.896-88.064-208.896-218.112v-312.32c0-131.072 83.968-219.136 208.896-219.136h477.184c124.928 0 209.92 88.064 209.92 219.136v312.32c0 130.048-84.992 218.112-209.92 218.112z" />
<glyph unicode="&#xe938;" glyph-name="cart" d="M320.512 240.128c-62.464 0-112.64-50.176-112.64-111.616s50.176-112.64 112.64-112.64 111.616 50.176 111.616 112.64-50.176 111.616-111.616 111.616zM304.128 128.512c0 8.192 7.168 15.36 16.384 15.36s15.36-7.168 15.36-15.36c0-18.432-31.744-18.432-31.744 0zM704.512 240.128c-62.464 0-112.64-50.176-112.64-111.616s50.176-112.64 112.64-112.64 111.616 50.176 111.616 112.64-50.176 111.616-111.616 111.616zM688.128 128.512c0 8.192 7.168 15.36 16.384 15.36s15.36-7.168 15.36-15.36c0-18.432-31.744-18.432-31.744 0zM922.624 704c-12.288 16.384-29.696 24.576-44.032 29.696s-30.72 8.192-46.080 10.24c-30.72 3.072-68.608 3.072-103.424 3.072h-474.112c-2.048 19.456-7.168 37.888-19.456 55.296-14.336 21.504-32.768 33.792-53.248 44.032-19.456 9.216-43.008 17.408-69.632 26.624l-11.264 4.096c-24.576 9.216-52.224-4.096-61.44-28.672s4.096-53.248 29.696-61.44l11.264-4.096c28.672-10.24 46.080-16.384 59.392-22.528 11.264-6.144 14.336-9.216 15.36-12.288 2.048-2.048 5.12-7.168 6.144-21.504 2.048-14.336 2.048-34.816 2.048-66.56v-116.736c0-61.44 0-107.52 6.144-143.36 7.168-38.912 20.48-67.584 46.080-95.232 28.672-30.72 65.536-43.008 105.472-48.128 38.912-6.144 87.040-6.144 145.408-6.144h226.304c31.744 0 60.416 0 82.944 3.072 24.576 3.072 49.152 10.24 70.656 27.648s32.768 38.912 40.96 62.464c7.168 22.528 13.312 50.176 19.456 81.92l21.504 103.424c7.168 35.84 13.312 67.584 15.36 93.184 1.024 26.624-2.048 56.32-21.504 81.92zM796.672 374.272c-5.12-14.336-8.192-17.408-10.24-19.456-2.048-1.024-7.168-4.096-21.504-6.144-16.384-2.048-37.888-2.048-71.68-2.048h-226.304c-61.44 0-101.376 0-132.096 4.096-28.672 4.096-40.96 11.264-49.152 20.48-11.264 11.264-17.408 22.528-20.48 45.056-5.12 26.624-5.12 63.488-5.12 126.976v107.52h468.992c36.864 0 67.584 0 92.16-3.072 12.288-1.024 20.48-3.072 25.6-4.096 0-1.024 0 0 1.024-1.024 0-2.048 0-6.144 0-14.336-1.024-17.408-6.144-41.984-13.312-79.872v0l-21.504-103.424c-7.168-33.792-11.264-55.296-16.384-70.656z" />
<glyph unicode="&#xe939;" glyph-name="cart-2" d="M888.832 731.648c-32.768 63.488-96.256 63.488-192.512 63.488h-442.368c-4.096 13.312-8.192 26.624-15.36 38.912-24.576 40.96-62.464 56.32-123.904 80.896l-11.264 4.096c-24.576 10.24-53.248-2.048-62.464-26.624-10.24-24.576 2.048-52.224 26.624-62.464l11.264-4.096c48.128-19.456 69.632-28.672 76.8-40.96 10.24-15.36 10.24-50.176 10.24-108.544v-134.144c0-156.672 0-234.496 48.128-292.864 24.576-29.696 55.296-45.056 93.184-53.248-55.296-6.144-99.328-53.248-99.328-110.592 0-61.44 50.176-112.64 112.64-112.64s111.616 51.2 111.616 112.64c0 47.104-28.672 87.040-69.632 103.424 30.72-2.048 66.56-2.048 106.496-2.048h188.416c-38.912-18.432-65.536-56.32-65.536-101.376 0-61.44 50.176-112.64 112.64-112.64s111.616 51.2 111.616 112.64c0 45.056-26.624 82.944-65.536 101.376h17.408c26.624 0 48.128 21.504 48.128 48.128s-21.504 48.128-48.128 48.128h-299.008c-112.64 0-158.72 1.024-181.248 27.648-1.024 1.024-2.048 3.072-3.072 4.096h394.24c45.056 0 77.824 0 107.52 24.576 26.624 22.528 35.84 53.248 54.272 107.52l18.432 56.32c37.888 115.712 57.344 173.056 29.696 228.352zM304.128 85.504c0 9.216 7.168 16.384 16.384 16.384s15.36-7.168 15.36-16.384c0-17.408-31.744-17.408-31.744 0zM688.128 85.504c0 9.216 7.168 16.384 16.384 16.384s15.36-7.168 15.36-16.384c0-17.408-31.744-17.408-31.744 0zM768 531.968l-18.432-54.272c-10.24-29.696-19.456-60.416-24.576-64.512-5.12-2.048-27.648-2.048-46.080-2.048h-415.744c-2.048 34.816-2.048 77.824-2.048 131.072v134.144c0 8.192 0 14.336 0 22.528h435.2c52.224 0 101.376 0 106.496-11.264 10.24-18.432-9.216-75.776-34.816-155.648z" />
<glyph unicode="&#xe93a;" glyph-name="cat-circle" d="M512 840.192c-217.088 0-392.192-175.104-392.192-392.192s175.104-392.192 392.192-392.192c217.088 0 392.192 175.104 392.192 392.192s-175.104 392.192-392.192 392.192zM51.2 448c0 254.976 206.848 460.8 460.8 460.8 254.976 0 460.8-205.824 460.8-460.8 0-253.952-205.824-460.8-460.8-460.8-253.952 0-460.8 206.848-460.8 460.8zM393.216 186.88h4.096l1.024 2.048c14.336 0 27.648 11.264 29.696 26.624 3.072 21.504 7.168 44.032 11.264 69.632 6.144 34.816-2.048 67.584-23.552 93.184s-52.224 39.936-86.016 39.936c-14.336 0-26.624 6.144-36.864 19.456-9.216 11.264-14.336 24.576-16.384 35.84 25.6 7.168 51.2 25.6 67.584 66.56 15.36 37.888 45.056 53.248 100.352 53.248 17.408 0 30.72 13.312 30.72 30.72v43.008c91.136-52.224 144.384-140.288 144.384-241.664v-41.984c0-40.96 28.672-78.848 71.68-96.256 19.456-8.192 43.008-18.432 63.488-32.768 13.312-10.24 32.768-6.144 43.008 7.168 9.216 13.312 6.144 32.768-7.168 43.008-26.624 18.432-55.296 30.72-76.8 38.912-16.384 7.168-32.768 21.504-32.768 38.912v43.008c0 141.312-83.968 261.12-225.28 319.488-9.216 3.072-20.48 2.048-28.672-3.072-8.192-6.144-13.312-15.36-13.312-25.6v-63.488c-39.936-4.096-98.304-20.48-126.976-90.112-11.264-28.672-26.624-32.768-40.96-32.768s-26.624-10.24-29.696-23.552c-8.192-31.744 3.072-75.776 27.648-107.52 21.504-27.648 52.224-43.008 84.992-43.008 15.36 0 29.696-7.168 38.912-17.408 10.24-12.288 13.312-26.624 10.24-44.032-4.096-25.6-8.192-50.176-11.264-72.704-2.048-16.384 10.24-31.744 26.624-34.816zM413.696 495.104c-16.384 0-29.696 12.288-29.696 29.696s13.312 29.696 29.696 29.696c17.408 0 29.696-12.288 29.696-29.696 0-12.288-12.288-29.696-29.696-29.696z" />
<glyph unicode="&#xe93b;" glyph-name="cat-face" d="M549.888 318.976c-11.264 4.096-24.576 6.144-36.864 6.144s-25.6-2.048-36.864-6.144c-5.12-2.048-12.288-6.144-18.432-11.264-5.12-5.12-13.312-15.36-13.312-30.72 0-14.336 8.192-24.576 13.312-29.696 6.144-6.144 13.312-9.216 18.432-11.264 11.264-4.096 24.576-6.144 36.864-6.144s25.6 2.048 36.864 6.144c5.12 2.048 12.288 5.12 17.408 11.264 6.144 5.12 14.336 15.36 14.336 29.696 0 15.36-8.192 25.6-14.336 30.72-5.12 5.12-12.288 9.216-17.408 11.264zM385.024 448c-22.528 0-36.864-14.336-44.032-26.624s-11.264-26.624-11.264-40.96c0-15.36 4.096-29.696 11.264-41.984 7.168-11.264 21.504-25.6 44.032-25.6s35.84 14.336 43.008 25.6c8.192 12.288 11.264 26.624 11.264 41.984 0 14.336-3.072 28.672-11.264 40.96-7.168 12.288-21.504 26.624-43.008 26.624zM641.024 448c-22.528 0-36.864-14.336-44.032-26.624s-11.264-26.624-11.264-40.96c0-15.36 4.096-29.696 11.264-41.984 7.168-11.264 21.504-25.6 44.032-25.6 21.504 0 35.84 14.336 43.008 25.6 8.192 12.288 11.264 26.624 11.264 41.984 0 14.336-3.072 28.672-11.264 40.96-7.168 12.288-21.504 26.624-43.008 26.624zM959.488 332.288c-10.24 6.144-30.72 16.384-55.296 24.576 1.024 40.96 0 87.040-19.456 132.096 17.408 30.72 18.432 69.632 19.456 83.968v80.896c0 99.328-72.704 144.384-140.288 144.384-35.84 0-75.776-23.552-114.688-45.056-13.312-8.192-33.792-20.48-34.816-21.504-11.264 0-18.432 1.024-26.624 2.048-16.384 2.048-35.84 4.096-75.776 4.096s-59.392-2.048-75.776-4.096c-8.192-1.024-15.36-2.048-20.48-3.072-7.168 2.048-27.648 14.336-40.96 22.528-38.912 21.504-78.848 45.056-114.688 45.056-67.584 0-139.264-45.056-139.264-144.384v-80.896c0-14.336 1.024-53.248 18.432-83.968-19.456-45.056-20.48-91.136-19.456-131.072-24.576-9.216-45.056-19.456-55.296-25.6-17.408-11.264-22.528-34.816-11.264-53.248 7.168-11.264 19.456-17.408 31.744-17.408 7.168 0 14.336 2.048 21.504 6.144 3.072 2.048 10.24 5.12 18.432 9.216 3.072-17.408 8.192-32.768 14.336-47.104 0 0 0-1.024-1.024-1.024l16.384-35.84-21.504 32.768c-17.408-11.264-22.528-35.84-11.264-53.248 7.168-11.264 19.456-17.408 32.768-17.408 7.168 0 14.336 2.048 20.48 6.144 0 0 5.12 3.072 5.12 3.072 1.024 1.024 2.048 2.048 3.072 2.048 84.992-84.992 235.52-110.592 328.704-110.592s243.712 25.6 328.704 110.592c1.024 0 2.048-1.024 3.072-2.048l5.12-3.072c6.144-4.096 12.288-6.144 18.432-6.144 12.288 0 24.576 7.168 31.744 19.456 12.288 17.408 4.096 43.008-13.312 54.272-1.024 0-1.024 1.024-1.024 1.024 6.144 14.336 11.264 29.696 14.336 47.104 8.192-4.096 15.36-7.168 18.432-9.216 7.168-4.096 14.336-6.144 21.504-6.144 12.288 0 24.576 6.144 31.744 17.408 11.264 18.432 7.168 41.984-11.264 53.248zM791.552 274.944c-8.192 2.048-16.384 3.072-24.576 3.072-21.504 0-38.912-16.384-38.912-37.888 0-9.216 4.096-17.408 9.216-24.576-68.608-45.056-176.128-57.344-225.28-57.344s-155.648 12.288-225.28 57.344c5.12 7.168 9.216 15.36 9.216 24.576 0 21.504-17.408 37.888-38.912 37.888-8.192 0-16.384-1.024-24.576-3.072-5.12 10.24-7.168 21.504-8.192 32.768 2.048 0 4.096 1.024 6.144 1.024 20.48 0 37.888 16.384 37.888 37.888s-17.408 38.912-37.888 38.912c-3.072 0-6.144-1.024-8.192-1.024 0 32.768 5.12 62.464 25.6 87.040 0 0 1.024 1.024 1.024 1.024 6.144 7.168 13.312 13.312 21.504 19.456 22.528 16.384 27.648 49.152 10.24 71.68-13.312 18.432-36.864 25.6-57.344 18.432v71.68c0 11.264 0 41.984 35.84 41.984 12.288-2.048 46.080-21.504 64.512-31.744 34.816-20.48 60.416-34.816 86.016-34.816 16.384 0 27.648 1.024 39.936 2.048 13.312 2.048 28.672 4.096 62.464 4.096s49.152-2.048 62.464-4.096c12.288-1.024 23.552-2.048 39.936-2.048 25.6 0 51.2 14.336 86.016 34.816 18.432 10.24 52.224 29.696 63.488 31.744 37.888 0 37.888-30.72 37.888-41.984v-71.68c-21.504 7.168-45.056 0-58.368-18.432-17.408-22.528-12.288-55.296 11.264-71.68 7.168-6.144 14.336-12.288 20.48-19.456 0 0 1.024-1.024 1.024-1.024 20.48-24.576 25.6-54.272 25.6-87.040-2.048 0-5.12 1.024-7.168 1.024-21.504 0-38.912-17.408-38.912-38.912s17.408-37.888 38.912-37.888c1.024 0 3.072-1.024 5.12-1.024-1.024-11.264-3.072-22.528-8.192-32.768z" />
<glyph unicode="&#xe93c;" glyph-name="cat-n-dog" d="M583.68 645.632c7.168-27.648 34.816-44.032 63.488-36.864 26.624 8.192 43.008 36.864 35.84 64.512-37.888 142.336-135.168 217.088-266.24 205.824l-74.752-6.144c-66.56-5.12-104.448-34.816-122.88-59.392-19.456-24.576-27.648-51.2-29.696-73.728l-131.072-56.32c-19.456-8.192-31.744-28.672-31.744-50.176 2.048-59.392 21.504-139.264 72.704-185.344 31.744-27.648 71.68-39.936 114.688-34.816 38.912 4.096 68.608 8.192 90.112 12.288 5.12-77.824-6.144-208.896-39.936-267.264-14.336-24.576-7.168-56.32 17.408-71.68 8.192-5.12 17.408-8.192 26.624-8.192 17.408 0 33.792 9.216 43.008 25.6 63.488 106.496 65.536 329.728 43.008 400.384-5.12 16.384-17.408 28.672-32.768 33.792-12.288 4.096-25.6 3.072-36.864-2.048-6.144-2.048-34.816-9.216-121.856-19.456-15.36-1.024-26.624 2.048-35.84 10.24-17.408 15.36-28.672 45.056-33.792 74.752l126.976 55.296c21.504 9.216 33.792 32.768 30.72 56.32-1.024 7.168-1.024 22.528 8.192 34.816 11.264 14.336 33.792 18.432 51.2 20.48l74.752 6.144c81.92 6.144 134.144-35.84 158.72-129.024zM726.016 606.72c-28.672 0-51.2-23.552-51.2-52.224v-43.008c-62.464-13.312-109.568-53.248-134.144-114.688-9.216-23.552-19.456-23.552-27.648-23.552-23.552 0-44.032-16.384-49.152-39.936-9.216-37.888 0-83.968 24.576-121.856s61.44-61.44 103.424-68.608c32.768-5.12 43.008-13.312 45.056-55.296 1.024-28.672 26.624-50.176 53.248-50.176 27.648 1.024 50.176 25.6 49.152 54.272-3.072 90.112-48.128 142.336-132.096 155.648-13.312 2.048-24.576 9.216-33.792 22.528-2.048 3.072-4.096 7.168-5.12 10.24 29.696 14.336 52.224 39.936 67.584 76.8 10.24 25.6 29.696 55.296 90.112 55.296 28.672 0 51.2 23.552 51.2 52.224v22.528c65.536-36.864 118.784-140.288 118.784-247.808 0-1.024 0-91.136-12.288-167.936-4.096-28.672 14.336-55.296 41.984-59.392 3.072-1.024 6.144-1.024 8.192-1.024 25.6 0 47.104 18.432 51.2 44.032 13.312 84.992 13.312 180.224 13.312 184.32 0 173.056-111.616 367.616-272.384 367.616zM355.328 719.36c-20.48 0-37.888-16.384-37.888-37.888s17.408-38.912 37.888-38.912c21.504 0 38.912 17.408 38.912 38.912s-17.408 37.888-38.912 37.888zM699.392 367.104c-21.504 0-38.912-16.384-38.912-37.888s17.408-37.888 38.912-37.888c20.48 0 37.888 16.384 37.888 37.888s-17.408 37.888-37.888 37.888z" />
<glyph unicode="&#xe93d;" glyph-name="cat-n-dog-pharmacy" d="M360.448 678.4c-17.408 0-31.744 15.36-31.744 32.768s14.336 31.744 31.744 31.744c17.408 0 31.744-14.336 31.744-31.744 0-18.432-14.336-32.768-31.744-32.768v0zM685.056 373.248c-17.408 0-31.744 14.336-31.744 31.744s14.336 32.768 31.744 32.768c17.408 0 32.768-14.336 32.768-32.768 0-17.408-15.36-31.744-32.768-31.744v0zM369.664 418.304c-17.408 0-30.72 14.336-31.744 31.744 0 15.36-1.024 30.72-2.048 43.008-20.48-4.096-51.2-8.192-97.28-13.312-35.84-4.096-67.584 6.144-93.184 27.648-55.296 48.128-60.416 137.216-60.416 154.624 0 13.312 7.168 24.576 19.456 29.696l126.976 54.272c1.024 18.432 7.168 43.008 24.576 65.536 15.36 19.456 46.080 43.008 102.4 47.104l67.584 6.144c65.536 5.12 181.248-10.24 226.304-172.032 4.096-17.408-6.144-34.816-22.528-38.912-17.408-5.12-34.816 5.12-39.936 22.528-23.552 89.088-77.824 131.072-158.72 124.928l-68.608-6.144c-26.624-2.048-46.080-9.216-56.32-22.528-11.264-13.312-12.288-30.72-11.264-41.984 3.072-14.336-5.12-28.672-18.432-34.816l-125.952-53.248c4.096-32.768 16.384-68.608 36.864-86.016 12.288-11.264 25.6-14.336 44.032-12.288 83.968 9.216 109.568 16.384 113.664 17.408 7.168 4.096 16.384 4.096 24.576 2.048 9.216-3.072 17.408-11.264 20.48-20.48 8.192-26.624 10.24-64.512 11.264-91.136 0-17.408-14.336-32.768-31.744-32.768v0-1.024zM894.976 118.272c-2.048 0-4.096 0-6.144 1.024-17.408 3.072-28.672 20.48-25.6 37.888 18.432 80.896 11.264 149.504 11.264 149.504 0 107.52-56.32 221.184-136.192 246.784v-43.008c0-17.408-15.36-31.744-32.768-31.744-49.152 0-79.872-18.432-95.232-58.368-16.384-38.912-41.984-57.344-66.56-64.512 2.048-8.192 6.144-18.432 11.264-25.6 7.168-10.24 19.456-23.552 39.936-26.624 70.656-11.264 105.472-51.2 107.52-123.904 1.024-17.408-13.312-32.768-30.72-33.792-16.384-1.024-31.744 13.312-32.768 30.72-1.024 41.984-14.336 57.344-53.248 63.488-33.792 5.12-63.488 23.552-83.968 54.272-19.456 28.672-27.648 66.56-20.48 96.256 3.072 13.312 16.384 23.552 30.72 23.552 13.312 0 27.648 4.096 37.888 30.72 22.528 54.272 64.512 87.040 122.88 95.232v50.176c0 17.408 14.336 31.744 31.744 31.744 137.216 0 233.472-163.84 233.472-311.296 0 0 7.168-74.752-12.288-166.912-3.072-15.36-16.384-25.6-31.744-25.6h1.024zM330.752 4.608h-83.968c-30.72 0-56.32 25.6-56.32 56.32v36.864h-36.864c-30.72 0-55.296 24.576-55.296 55.296v84.992c0 30.72 24.576 56.32 55.296 56.32h36.864v35.84c0 30.72 25.6 56.32 56.32 56.32h83.968c30.72 0 56.32-25.6 56.32-56.32v-35.84h35.84c30.72 0 56.32-25.6 56.32-56.32v-84.992c0-30.72-25.6-55.296-56.32-55.296h-35.84v-36.864c0-30.72-25.6-56.32-56.32-56.32zM253.952 69.12h69.632v60.416c0 17.408 14.336 31.744 31.744 31.744h60.416v68.608h-60.416c-17.408 0-31.744 15.36-31.744 32.768v60.416h-69.632v-60.416c0-17.408-14.336-32.768-31.744-32.768h-60.416v-68.608h60.416c17.408 0 31.744-14.336 31.744-31.744v-60.416zM486.4 479.744c-15.36 0-28.672 10.24-31.744 25.6-13.312 65.536-1.024 139.264 4.096 167.936 3.072 17.408 20.48 28.672 37.888 25.6s28.672-19.456 25.6-36.864c-4.096-19.456-15.36-89.088-4.096-144.384 3.072-17.408-7.168-33.792-25.6-37.888-2.048 0-4.096 0-6.144 0v0z" />
<glyph unicode="&#xe93e;" glyph-name="chart" d="M944.128 68.096v273.408c0 61.44-50.176 111.616-111.616 111.616h-128c-6.144 0-11.264-1.024-16.384-1.024v294.912c0 68.608 0 109.568-32.768 143.36s-74.752 32.768-143.36 32.768c-68.608 0-110.592 0-143.36-32.768s-32.768-74.752-32.768-143.36v-81.92c-5.12 1.024-10.24 2.048-15.36 2.048h-128c-62.464 0-112.64-50.176-112.64-112.64v-486.4c-23.552-3.072-41.984-22.528-41.984-47.104 0-26.624 21.504-48.128 47.104-48.128h854.016c26.624 0 48.128 21.504 48.128 48.128 0 24.576-19.456 44.032-43.008 47.104zM704.512 356.864h128c8.192 0 15.36-6.144 15.36-15.36v-272.384h-159.744v272.384c0 9.216 7.168 15.36 16.384 15.36zM432.128 747.008c0 31.744 0 68.608 4.096 74.752 14.336 9.216 137.216 9.216 151.552 0 4.096-6.144 4.096-43.008 4.096-74.752v-677.888h-159.744v677.888zM192.512 570.88h128c8.192 0 15.36-7.168 15.36-16.384v-485.376h-159.744v485.376c0 9.216 7.168 16.384 16.384 16.384z" />
<glyph unicode="&#xe93f;" glyph-name="chat-circle" d="M516.096 926.208c-262.144 0-475.136-212.992-475.136-475.136 0-73.728 16.384-145.408 50.176-210.944 2.048-4.096 3.072-9.216 2.048-12.288l-53.248-120.832-3.072-7.168c-9.216-35.84 1.024-72.704 27.648-99.328 19.456-20.48 45.056-30.72 72.704-30.72 8.192 0 17.408 1.024 26.624 4.096l128 55.296c3.072 0 8.192-1.024 12.288-3.072 66.56-32.768 137.216-49.152 211.968-49.152 261.12 0 474.112 212.992 474.112 474.112s-212.992 475.136-474.112 475.136zM516.096 73.216c-59.392 0-116.736 13.312-168.96 38.912-26.624 13.312-55.296 16.384-82.944 9.216l-126.976-55.296c0 0 0 0 0 0-2.048 0-3.072 0-5.12 2.048s-2.048 4.096-2.048 5.12l53.248 119.808 2.048 7.168c7.168 27.648 4.096 56.32-9.216 82.944-25.6 52.224-38.912 109.568-38.912 167.936 0 208.896 169.984 378.88 378.88 378.88s377.856-169.984 377.856-378.88-168.96-377.856-377.856-377.856z" />
<glyph unicode="&#xe940;" glyph-name="chat-circle-ellipsis" d="M512.128 512.512v0c-35.84 0-64.512-28.672-64.512-64.512s29.696-63.488 64.512-63.488 64.512 28.672 64.512 63.488-28.672 64.512-64.512 64.512zM342.144 512.512h-1.024c-34.816 0-63.488-28.672-63.488-64.512s28.672-63.488 64.512-63.488 63.488 28.672 63.488 63.488-28.672 64.512-63.488 64.512zM683.136 512.512h-1.024c-34.816 0-63.488-28.672-63.488-64.512s28.672-63.488 64.512-63.488 63.488 28.672 63.488 63.488-28.672 64.512-63.488 64.512zM516.224 926.208c-262.144 0-475.136-212.992-475.136-475.136 0-73.728 16.384-145.408 50.176-210.944 2.048-4.096 3.072-9.216 2.048-12.288l-53.248-120.832-3.072-7.168c-9.216-35.84 1.024-72.704 27.648-99.328 19.456-20.48 45.056-30.72 72.704-30.72 8.192 0 17.408 1.024 26.624 4.096l128 55.296c3.072 0 8.192-1.024 12.288-3.072 66.56-32.768 137.216-49.152 211.968-49.152 261.12 0 474.112 212.992 474.112 474.112s-212.992 475.136-474.112 475.136zM516.224 73.216c-59.392 0-116.736 13.312-168.96 38.912-26.624 13.312-55.296 16.384-82.944 9.216l-126.976-55.296c0 0 0 0 0 0-2.048 0-3.072 0-5.12 2.048s-2.048 4.096-2.048 5.12l53.248 119.808 2.048 7.168c7.168 27.648 4.096 56.32-9.216 82.944-25.6 52.224-38.912 109.568-38.912 167.936 0 208.896 169.984 378.88 378.88 378.88s377.856-169.984 377.856-378.88-168.96-377.856-377.856-377.856z" />
<glyph unicode="&#xe941;" glyph-name="chat-circle-text" d="M683.008 602.624h-342.016c-26.624 0-48.128-21.504-48.128-48.128s21.504-48.128 48.128-48.128h342.016c26.624 0 48.128 21.504 48.128 48.128s-21.504 48.128-48.128 48.128zM576.512 389.632h-235.52c-26.624 0-48.128-21.504-48.128-48.128s21.504-48.128 48.128-48.128h235.52c25.6 0 47.104 21.504 47.104 48.128s-21.504 48.128-47.104 48.128zM516.096 926.208c-262.144 0-475.136-212.992-475.136-475.136 0-73.728 16.384-145.408 50.176-210.944 2.048-4.096 3.072-9.216 2.048-12.288l-53.248-120.832-3.072-7.168c-9.216-35.84 1.024-72.704 27.648-99.328 19.456-20.48 45.056-30.72 72.704-30.72 8.192 0 17.408 1.024 26.624 4.096l128 55.296c3.072 0 8.192-1.024 12.288-3.072 66.56-32.768 137.216-49.152 211.968-49.152 261.12 0 474.112 212.992 474.112 474.112s-212.992 475.136-474.112 475.136zM516.096 73.216c-59.392 0-116.736 13.312-168.96 38.912-26.624 13.312-55.296 16.384-82.944 9.216l-126.976-55.296c0 0 0 0 0 0-2.048 0-3.072 0-5.12 2.048s-2.048 4.096-2.048 5.12l53.248 119.808 2.048 7.168c7.168 27.648 4.096 56.32-9.216 82.944-25.6 52.224-38.912 109.568-38.912 167.936 0 208.896 169.984 378.88 378.88 378.88s377.856-169.984 377.856-378.88-168.96-377.856-377.856-377.856z" />
</font>
</defs>
</svg>
